<?xml version="1.0" standalone="no"?>
<!DOCTYPE svg PUBLIC "-//W3C//DTD SVG 1.1//EN" "http://www.w3.org/Graphics/SVG/1.1/DTD/svg11.dtd" >
<svg>
<metadata>
Created by FontForge 20090622 at Mon Oct  2 09:26:43 2017
 By deploy user
Copyright (c) 2011 by James T. Edmondson. All rights reserved.
</metadata>
<defs>
<font id="Lavanderia-Sturdy" horiz-adv-x="1181" >
  <font-face 
    font-family="Lavanderia Sturdy"
    font-weight="420"
    font-stretch="normal"
    units-per-em="1000"
    panose-1="2 0 6 3 2 0 0 2 0 3"
    ascent="750"
    descent="-250"
    x-height="456"
    cap-height="882"
    bbox="-653 -642 1744 1091"
    underline-thickness="20"
    underline-position="-113"
    unicode-range="U+0020-U+FB02"
  />
<missing-glyph horiz-adv-x="240" 
 />
    <glyph glyph-name="w_e" unicode="we" horiz-adv-x="786" 
d="M494 138h-15q-48 0 -84 28q-33 -79 -74.5 -128t-84.5 -49q-72 0 -79 123q-46 -123 -98 -123q-70 0 -70 129q0 89 49 338h85q-56 -294 -56 -353q0 -35 12 -35q18 0 42 47.5t43 132.5q11 88 35 208h84q-49 -258 -49 -333q0 -56 21 -56q18 0 45 44.5t51 111.5
q-29 58 -29 136q0 67 22 116t57 49q58 0 58 -88q0 -100 -51 -237q31 -31 77 -31h8q1 69 23.5 136.5t66.5 114.5t97 47q30 0 46 -21.5t16 -56.5q0 -63 -44.5 -131.5t-119.5 -99.5q9 -82 62 -82q85 0 146 164q5 0 16.5 -5t11.5 -9q-45 -117 -88 -176t-110 -59q-56 0 -86.5 41
t-35.5 107zM672 404q-35 0 -64 -67t-32 -141q49 32 78 89t29 96q0 23 -11 23zM400 454q0 23 -11 23t-20.5 -35t-9.5 -81q0 -45 10 -84q31 107 31 177z" />
    <glyph glyph-name="F_r" unicode="Fr" horiz-adv-x="1230" 
d="M1039 867l35 -45q-28 -45 -78 -64q-42 -117 -72 -396q56 8 102 33q-12 34 -12 73q0 54 22 125l75 -22q-4 -79 -20 -140q-3 -13 -9 -25l14.5 -15t16 -17l13.5 -16t13.5 -19.5t9.5 -19t8 -22.5t2 -23q0 -36 -23 -102t-23 -80q0 -21 16 -21q37 0 101 168q5 0 16.5 -4.5
t11.5 -8.5v-1l-14 -37.5l-14.5 -38l-14 -34.5t-16 -33.5t-16 -27.5t-18 -25l-19.5 -17.5t-23.5 -13t-25.5 -3.5q-35 0 -54 23t-19 64q0 34 27 92.5t27 82.5q0 38 -33 98q-44 -37 -127 -47q-16 -128 -47.5 -226t-69 -157.5t-84.5 -96.5t-91.5 -51t-94.5 -14
q-114 0 -172.5 54.5t-58.5 131.5q0 69 43.5 120.5t113.5 52.5l3 -91q-32 0 -52 -27.5t-20 -64.5q0 -49 36.5 -85.5t109.5 -36.5q35 0 64.5 9.5t63.5 40.5t61 82t52 141t41 211q-118 -16 -118 -98q0 -19 8 -46l-77 -30q-16 31 -16 64q0 64 57 112t153 55q29 257 92 386h-22
q-66 0 -229.5 30.5t-274.5 30.5q-69 0 -125.5 -26t-91.5 -68t-53.5 -93.5t-18.5 -104.5q0 -93 53 -158t151 -65q97 0 142 60t45 154q0 26 -3 55l90 16q4 -40 4 -60q0 -121 -66 -198t-211 -77q-144 0 -222.5 83.5t-78.5 202.5q0 65 25 127t72 113.5t123 82.5t168 31
q93 0 194.5 -20t185 -40.5t133.5 -20.5q18 0 44 2q41 55 90 66z" />
    <glyph glyph-name="o_e" unicode="oe" horiz-adv-x="624" 
d="M287 149q17 0 34 3v13q0 109 54 205t133 96q38 0 58.5 -25.5t20.5 -66.5q0 -66 -47.5 -136.5t-129.5 -104.5q13 -58 58 -58q44 0 86 44t70 120q5 0 16.5 -5t11.5 -9q-43 -112 -91.5 -173.5t-116.5 -61.5q-98 0 -119 121q-13 -2 -39 -2q-15 0 -43 2q-56 -121 -152 -121
q-49 0 -74 45t-25 118q0 87 31 178l30 -7q6 59 42 100.5t88 41.5q50 0 76 -45.5t26 -122.5q0 -70 -26 -148q9 -1 28 -1zM168 402q-28 0 -46 -27t-18 -66t19 -75.5t57 -58.5q27 81 27 149q0 78 -39 78zM500 404q-36 0 -65.5 -72t-30.5 -148q53 35 84.5 91t31.5 97
q0 32 -20 32zM68 225q-5 -35 -5 -60q0 -44 11 -71.5t30 -27.5q29 0 60 66q-68 30 -96 93z" />
    <glyph glyph-name="b_r" unicode="br" horiz-adv-x="550" 
d="M173 459q74 0 90 -101q53 15 81 43q-11 33 -11 67q0 55 23 125l75 -22v-15q0 -86 -32 -146q4 -4 17 -18l19 -20.5t16 -20t15 -24t9 -25t4 -28.5q0 -36 -23 -102t-23 -80q0 -21 16 -21q37 0 101 168q5 0 16.5 -4.5t11.5 -8.5v-1l-14 -37.5l-14.5 -38l-14 -34.5t-16 -33.5
t-16 -27.5t-18 -25l-19.5 -17.5t-23.5 -13t-25.5 -3.5q-35 0 -54 23t-19 64q0 34 27 92.5t27 82.5q0 11 -1.5 21.5t-3 17t-6.5 18t-7 15l-9 16.5t-8 15q-38 -39 -95 -54v-21q0 -101 -54 -195.5t-118 -94.5q-100 0 -100 169q0 83 25 218q44 241 70 312q41 100 100 104
q59 0 59 -59q0 -49 -39.5 -124t-105.5 -154l-6 -34q27 32 74 32zM189 296h-6q-74 0 -97 50q-17 -117 -17 -189q0 -88 29 -88q37 0 63 72t28 155zM204 711q0 2 0.5 4.5t0.5 3.5q0 14 -9 14q-28 0 -75 -199q67 99 83 177zM151 394q-13 -3 -13 -17q0 -11 12 -19.5t35 -9.5
q-8 46 -30 46h-4z" />
    <glyph glyph-name="b_s" unicode="bs" horiz-adv-x="581" 
d="M368 422l3 8q-1 10 -1 31q0 67 22 134l68 -13q-8 -69 -30 -124q0 -2 -0.5 -7t-0.5 -7q0 -36 25.5 -89.5l51 -111.5t25.5 -107v-4q24 39 50 107q5 0 16.5 -5t11.5 -9q-16 -41 -29.5 -71t-33 -63t-40 -53.5t-48.5 -34t-59 -13.5q-35 0 -61.5 18.5t-37.5 49.5l61 44
q18 -30 44 -30q39 0 39 54q0 43 -29 128t-36 122q-45 -50 -111 -69v-22q0 -101 -54 -195.5t-118 -94.5q-100 0 -100 169q0 83 25 218q44 241 70 312q41 100 100 104q59 0 59 -59q0 -49 -39.5 -124t-105.5 -154l-6 -34q27 32 74 32q74 0 90 -102q41 11 70.5 29.5t34.5 35.5z
M86 346q-17 -117 -17 -189q0 -88 29 -88q37 0 63 72t28 155h-6q-74 0 -97 50zM204 711q0 2 0.5 4.5t0.5 3.5q0 14 -9 14q-28 0 -75 -199q67 99 83 177zM151 394q-13 -3 -13 -17q0 -11 12 -19.5t35 -9.5q-8 46 -30 46h-4z" />
    <glyph glyph-name="f_r" unicode="fr" horiz-adv-x="503" 
d="M219 711q0 22 -10 22q-14 0 -46 -117t-66 -281q47 86 84 190.5t38 185.5zM59 -182q15 0 24.5 19.5t9.5 48.5q0 78 -50 128q-8 -74 -8 -119q0 -77 24 -77zM304 385q-18 40 -18 84q0 49 23 124l75 -22q-6 -93 -28 -166q49 -50 62 -77q14 -26 14 -54q0 -36 -23 -102t-23 -80
q0 -21 16 -21q37 0 101 168q5 0 16.5 -4.5t11.5 -8.5v-1l-14 -37.5l-14.5 -38l-14 -34.5t-16 -33.5t-16 -27.5t-18 -25l-19.5 -17.5t-23.5 -13t-25.5 -3.5q-65 0 -65 75q0 34 23 98.5t23 88.5q0 36 -20 74q-90 -237 -246 -287q57 -60 57 -143q0 -55 -25.5 -94t-64.5 -39
q-42 0 -67.5 29t-25.5 108q0 155 57 443.5t100 387.5q28 62 81 62q28 0 47.5 -21t19.5 -58q0 -73 -20.5 -150.5t-53.5 -144.5t-59.5 -110t-53.5 -81q-12 -63 -25 -148q50 9 95 41t75.5 76t51.5 91t30 92z" />
    <glyph glyph-name="x_t" unicode="xt" horiz-adv-x="571" 
d="M0 238v1q46 118 78.5 171.5t68.5 53.5q22 0 37.5 -13t24 -38t12 -51.5t5.5 -63.5q22 60 62 101t87.5 58.5t99.5 17.5t103 -17l-18 -48q-47 14 -84 18t-73.5 -4t-66.5 -31.5t-57.5 -67.5t-51.5 -109q1 -75 9 -113.5t34 -38.5q53 0 119 175q5 0 16.5 -5t11.5 -9
q-88 -232 -182 -232q-66 0 -80 119q-54 -122 -107 -122q-57 0 -57 64q0 42 28 94l55 -23q-16 -32 -16 -53q0 -18 13 -18q31 0 79 127q-1 23 -1.5 60t-1 58.5t-2.5 44.5t-8 34t-15 11q-17 0 -37.5 -34t-56.5 -130q-28 5 -28 13zM473 692h71q-7 -123 -32 -238l-11 -46
q-15 -63 -31 -118q-15 -103 -15 -158q0 -64 20 -64q29 0 96 171q5 0 16.5 -5.5t11.5 -8.5q-49 -132 -79 -181t-76 -49q-62 0 -62 139q0 109 34 274q52 261 57 284z" />
    <glyph glyph-name=".notdef" horiz-adv-x="240" 
 />
    <glyph glyph-name="uni0000" horiz-adv-x="0" 
 />
    <glyph glyph-name="uni0000" horiz-adv-x="0" 
 />
    <glyph glyph-name="nonmarkingreturn" horiz-adv-x="333" 
 />
    <glyph glyph-name="space" unicode=" " horiz-adv-x="181" 
 />
    <glyph glyph-name="exclam" unicode="!" horiz-adv-x="159" 
d="M215 730l92 -24q-104 -253 -178 -536l-56 9q60 294 142 551zM61 -10q-23 0 -35 14.5t-12 36.5q0 29 19.5 54t50.5 25q23 0 35 -14.5t12 -37.5q0 -29 -19.5 -53.5t-50.5 -24.5z" />
    <glyph glyph-name="quotedbl" unicode="&#x22;" horiz-adv-x="200" 
d="M91 580l-45 8q7 33 11.5 68.5t5.5 54.5l1 19l67 -12q-24 -61 -40 -138zM186 580l-45 8q7 33 11.5 68.5t5.5 54.5l1 19l67 -12q-24 -61 -40 -138z" />
    <glyph glyph-name="numbersign" unicode="#" horiz-adv-x="386" 
d="M258 482h76q-12 -75 -22 -124h73l-9 -52h-73q-8 -46 -13 -68h76l-9 -52h-77l-21 -109h-76l21 109h-41l-21 -109h-76l21 109h-74l9 52h75l12 68h-77l9 52h78l22 124h76q-12 -75 -22 -124h41zM173 238h41l12 68h-40q-8 -46 -13 -68z" />
    <glyph glyph-name="dollar" unicode="$" horiz-adv-x="317" 
d="M-5 151l90 -15q-6 -18 -6 -35q0 -52 46 -52q24 0 37.5 16t13.5 44q0 26 -19.5 54.5t-43.5 51t-43.5 55.5t-19.5 66q0 53 30.5 90t96.5 40l13 73h52l-13 -79q37 -11 58 -41t21 -74q0 -17 -5 -44l-86 19q7 21 7 41q0 23 -11.5 37t-31.5 14q-21 0 -32.5 -13t-11.5 -33
q0 -28 21.5 -57.5t47 -51.5t47 -55.5t21.5 -68.5q0 -59 -33.5 -96.5t-94.5 -44.5l-14 -82h-62l14 83q-94 18 -94 113q0 25 5 45z" />
    <glyph glyph-name="percent" unicode="%" horiz-adv-x="454" 
d="M361 200q-27 0 -45.5 -36t-18.5 -76q0 -53 33 -53q27 0 45.5 36t18.5 75q0 54 -33 54zM365 240q43 0 65 -27.5t22 -69.5q0 -56 -35 -102t-92 -46q-43 0 -65 27.5t-22 69.5q0 56 35 102t92 46zM140 466q14 0 38.5 -3t36.5 -3q84 0 161 67l46 -25q-50 -114 -152 -265.5
t-196 -247.5l-47 37q93 98 172.5 209.5t112.5 173.5l34 62q-44 -35 -128 -35h-13q21 -27 21 -68q0 -56 -35 -101.5t-91 -45.5q-43 0 -65 27.5t-22 69.5q0 56 35 102t92 46zM136 426q-27 0 -45.5 -36t-18.5 -76q0 -53 33 -53q27 0 45.5 36t18.5 75q0 54 -33 54z" />
    <glyph glyph-name="ampersand" unicode="&#x26;" horiz-adv-x="509" 
d="M311 319l8 49h181l-8 -49q-21 -1 -49 -1q-7 -173 -84 -261q71 -103 142 -103q41 0 67 40l42 -43q-44 -45 -108 -45q-103 0 -197 107q-44 -23 -93 -23q-95 0 -144 53t-49 132q0 62 29.5 123.5t82.5 101.5q-10 54 -10 109q0 99 37 158t113 59q57 0 86 -34.5t29 -85.5
q0 -69 -45 -114l-58 45q31 38 31 82q0 25 -11.5 41t-32.5 16q-64 0 -64 -129q0 -94 34.5 -219.5t88.5 -222.5q23 56 25 213q-28 0 -43 1zM222 39q33 0 54 10q-93 125 -134 297q-33 -57 -33 -136q0 -72 30 -121.5t83 -49.5z" />
    <glyph glyph-name="quotesingle" unicode="'" horiz-adv-x="135" 
d="M115 580l-45 8q7 33 11.5 68.5t5.5 54.5l1 19l67 -12q-24 -61 -40 -138z" />
    <glyph glyph-name="parenleft" unicode="(" horiz-adv-x="203" 
d="M210 785l49 -29q-69 -144 -114 -359.5t-45 -397.5q0 -43 3 -84l-50 -10q-34 111 -34 242q0 166 52 336.5t139 301.5z" />
    <glyph glyph-name="parenright" unicode=")" horiz-adv-x="218" 
d="M11 -95l-49 29q69 144 114 359.5t45 396.5q0 44 -3 85l50 10q34 -112 34 -242q0 -167 -52 -337t-139 -301z" />
    <glyph glyph-name="asterisk" unicode="*" horiz-adv-x="184" 
d="M96 733l49 -8q-7 -34 -20 -72q27 13 68 29l12 -49q-29 -10 -71 -16q27 -16 62 -45l-34 -34q-24 19 -50 53q0 -36 -7 -75l-49 12q4 23 20 67q-32 -16 -67 -28l-14 48q34 11 69 16q-23 12 -59 44l34 34q27 -24 48 -52q0 34 9 76z" />
    <glyph glyph-name="plus" unicode="+" horiz-adv-x="197" 
d="M129 283h63l-9 -52h-64l-13 -75l-50 6l12 69h-64l9 52h65l14 77l50 -6z" />
    <glyph glyph-name="comma" unicode="," horiz-adv-x="152" 
d="M8 -132l-37 33q38 59 38 155h74q0 -115 -75 -188z" />
    <glyph glyph-name="hyphen" unicode="-" horiz-adv-x="219" 
d="M23 283h179l-9 -52h-179z" />
    <glyph glyph-name="period" unicode="." horiz-adv-x="200" 
d="M61 -10q-23 0 -35 14.5t-12 36.5q0 29 19.5 54t50.5 25q23 0 35 -14.5t12 -37.5q0 -29 -19.5 -53.5t-50.5 -24.5z" />
    <glyph glyph-name="slash" unicode="/" horiz-adv-x="190" 
d="M76 -10l-56 19q51 162 94 340.5t60 276.5l18 98l61 -9q-7 -42 -20 -113t-59 -262.5t-98 -349.5z" />
    <glyph glyph-name="zero" unicode="0" horiz-adv-x="336" 
d="M142 51q28 0 58.5 92t30.5 193q0 70 -33 70q-32 0 -59.5 -94.5t-27.5 -185.5q0 -75 31 -75zM137 -9q-59 0 -87 46t-28 121q0 119 52.5 213.5t132.5 94.5q59 0 85.5 -46t26.5 -121q0 -125 -52.5 -216.5t-129.5 -91.5z" />
    <glyph glyph-name="one" unicode="1" horiz-adv-x="245" 
d="M220 0h-205l7 51h58q13 86 28 159.5t23 104.5l8 31q-21 -30 -70 -76l-28 57q30 20 66 53t57 56l22 23l51 -16q0 -3 -10.5 -55t-27.5 -144.5t-32 -192.5h60z" />
    <glyph glyph-name="two" unicode="2" horiz-adv-x="302" 
d="M168 408q-23 0 -37.5 -18.5t-14.5 -47.5q0 -21 7 -41l-72 -34q-13 26 -13 58q0 55 37.5 98t98.5 43q59 0 88.5 -32.5t29.5 -88.5q0 -45 -22 -86t-50.5 -67l-71.5 -66.5t-69 -71.5q6 1 20 1h32q73 0 104 31l47 -58q-32 -38 -79 -38q-24 0 -67.5 9.5t-59.5 9.5
q-12 0 -26 -5.5t-14 -14.5l-57 30q34 60 95.5 127t98.5 116t37 95q0 23 -11.5 37t-30.5 14z" />
    <glyph glyph-name="three" unicode="3" horiz-adv-x="333" 
d="M142 152l14 72q24 -2 45 -6q42 52 42 120q0 33 -13.5 53t-39.5 20q-23 0 -40 -20t-17 -51q0 -18 8 -42l-70 -26q-12 27 -12 60q0 54 34.5 94t99.5 40q64 0 97 -37.5t33 -93.5q0 -90 -65 -146q47 -41 47 -113q0 -73 -48.5 -131t-127.5 -58q-56 0 -87 34.5t-31 84.5
q0 69 54 114l56 -56q-34 -29 -34 -70q0 -21 12 -34t36 -13q37 0 61 45t24 99q0 41 -15 68q-24 -8 -49 -8q-9 0 -14 1z" />
    <glyph glyph-name="four" unicode="4" horiz-adv-x="338" 
d="M238 456h75l-8 -39.5l-20 -99.5t-25 -132q28 3 49 16l25 -60q-36 -23 -85 -23l-11 -67h68l-7 -51h-205l7 51h58l12 76q-30 5 -51 5q-38 0 -55 -20l-63 40q85 113 91 304h76q-2 -163 -65 -283q22 9 77 9q12 68 26.5 136.5l22.5 103.5z" />
    <glyph glyph-name="five" unicode="5" horiz-adv-x="310" 
d="M99 175l-48 23q4 8 11 15q34 101 45 248q53 -9 94 -9q29 0 55.5 3t38.5 7l12 3l7 -82q-38 -14 -101 -14q-30 0 -57 4q-2 -8 -10.5 -55.5t-13.5 -68.5q13 3 28 3q62 0 94 -41t32 -105q0 -86 -47 -153.5t-129 -67.5q-58 0 -89.5 33t-31.5 81q0 73 62 123l53 -59
q-35 -38 -35 -73q0 -20 11.5 -32.5t28.5 -12.5q38 0 63.5 55.5t25.5 115.5q0 41 -17.5 62.5t-43.5 21.5q-7 0 -11.5 -1t-8.5 -3.5t-6 -4.5t-6 -7.5t-6 -8.5z" />
    <glyph glyph-name="six" unicode="6" horiz-adv-x="324" 
d="M295 552l31 -68q-154 -55 -205 -182q38 43 80 43q45 0 69 -38.5t24 -95.5q0 -81 -43.5 -148.5t-114.5 -67.5q-59 0 -89.5 46t-30.5 115q0 139 84 250t195 146zM172 291q-30 0 -53.5 -39t-25.5 -101q0 -96 45 -96q30 0 49.5 50.5t19.5 107.5q0 78 -35 78z" />
    <glyph glyph-name="seven" unicode="7" horiz-adv-x="281" 
d="M128 -90h-95q24 136 73 268.5t110 217.5q-27 -4 -66 -4q-26 0 -56 3q0 -4 0.5 -11.5t0.5 -10.5q0 -4 -3 -46l-71 3q7 35 7 127q64 -11 148 -11q69 0 112 10l2 -68q-124 -170 -162 -478z" />
    <glyph glyph-name="eight" unicode="8" horiz-adv-x="314" 
d="M221 563q51 0 77 -30.5t26 -77.5q0 -44 -22 -87t-60 -66q54 -36 54 -117q0 -73 -46.5 -131.5t-125.5 -58.5q-58 0 -89 37.5t-31 93.5q0 55 29 105.5t79 73.5q-42 35 -42 102q0 62 39.5 109t111.5 47zM174 273q-35 0 -59 -50t-24 -105q0 -73 40 -73q32 0 55.5 53t23.5 107
q0 68 -36 68zM215 513q-30 0 -48 -38t-18 -82q0 -64 32 -64q27 0 46.5 41.5t19.5 85.5q0 57 -32 57z" />
    <glyph glyph-name="nine" unicode="9" horiz-adv-x="313" 
d="M36 -34q101 51 156 191q-33 -43 -73 -43q-49 0 -74.5 40.5t-25.5 101.5q0 82 43 148t116 66q62 0 93.5 -47t31.5 -123q0 -116 -64 -236.5t-164 -164.5zM142 174q31 0 58 42t27 101q0 93 -46 93q-30 0 -52.5 -54t-22.5 -110q0 -72 36 -72z" />
    <glyph glyph-name="colon" unicode=":" horiz-adv-x="129" 
d="M61 -10q-23 0 -35 14.5t-12 36.5q0 29 19.5 54t50.5 25q23 0 35 -14.5t12 -37.5q0 -29 -19.5 -53.5t-50.5 -24.5zM120 345q-23 0 -35 14.5t-12 36.5q0 29 19.5 54t50.5 25q23 0 35 -14.5t12 -37.5q0 -29 -19.5 -53.5t-50.5 -24.5z" />
    <glyph glyph-name="semicolon" unicode=";" horiz-adv-x="138" 
d="M-14 -132l-37 33q38 59 38 155h74q0 -115 -75 -188zM120 345q-23 0 -35 14.5t-12 36.5q0 29 19.5 54t50.5 25q23 0 35 -14.5t12 -37.5q0 -29 -19.5 -53.5t-50.5 -24.5z" />
    <glyph glyph-name="less" unicode="&#x3c;" horiz-adv-x="255" 
d="M10 361l7 41q100 48 185 112l32 -53q-37 -24 -79 -45t-65 -30l-24 -9q30 -22 61 -48t47 -41l17 -16l-48 -51q-60 81 -133 140z" />
    <glyph glyph-name="equal" unicode="=" horiz-adv-x="222" 
d="M22 224h179l-9 -52h-179zM40 328h179l-9 -52h-179z" />
    <glyph glyph-name="greater" unicode="&#x3e;" horiz-adv-x="241" 
d="M234 374l-7 -41q-100 -48 -185 -112l-32 53q37 24 79 45t65 30l24 9q-30 22 -61 48t-47 42l-17 15l48 51q60 -81 133 -140z" />
    <glyph glyph-name="question" unicode="?" horiz-adv-x="272" 
d="M194 169l-70 10q8 56 29 106t46 86l48.5 69.5t39 71t15.5 75.5q0 42 -18 65.5t-53 23.5q-34 0 -57.5 -32.5t-23.5 -75.5q0 -57 42 -93l-62 -66q-70 45 -70 138q0 73 47 128t127 55q73 0 118 -39.5t45 -108.5q0 -48 -18 -89.5t-45 -74.5l-55 -66t-52.5 -80.5t-32.5 -102.5
zM123 -10q-23 0 -35 14.5t-12 36.5q0 29 19.5 54t50.5 25q23 0 35 -14.5t12 -37.5q0 -29 -19.5 -53.5t-50.5 -24.5z" />
    <glyph glyph-name="at" unicode="@" horiz-adv-x="573" 
d="M366 67q23 0 50 50t46 129t19 152q0 94 -36 153.5t-116 59.5t-148 -78t-103.5 -191t-35.5 -225q0 -120 45 -196t136 -76q109 0 193 102.5t157 291.5q5 0 16.5 -5t11.5 -9l-37.5 -95t-38.5 -87t-44.5 -82t-50.5 -66.5t-60.5 -54.5t-71 -32t-85.5 -13q-75 0 -127 45
t-74.5 115.5t-22.5 160.5q0 127 41.5 250.5t122.5 209t180 85.5q103 0 152 -75t49 -192q0 -92 -27 -184.5t-72 -153.5t-93 -61q-54 0 -54 99v10q-43 -114 -116 -114q-69 0 -69 127q0 72 22.5 152.5t63.5 138.5t86 58q55 0 65 -67l11 56h71q-40 -177 -63 -340q-2 -20 -2 -24
q0 -24 9 -24zM280 394q-30 0 -61.5 -97t-31.5 -170q0 -52 21 -52q33 0 68 91.5t35 164.5q0 63 -31 63z" />
    <glyph glyph-name="A" unicode="A" 
d="M694 407q91 -6 170 -44l35.5 91l38 96l34 81t39 84l37.5 65t44 63t44 41l69 -31q-110 -573 -110 -860q0 -349 154 -349q77 0 114 93l85 -30q-56 -141 -186 -141q-142 0 -204.5 109t-62.5 313q0 25 2 77q-4 129 -93 204q-33 -87 -65 -154t-78 -136.5t-96.5 -114
t-119.5 -73t-148 -28.5q-89 0 -160.5 31.5t-115 85.5t-66 121t-22.5 141q0 81 26.5 157t75 137.5t126.5 99t173 37.5q103 0 168.5 -45.5t91.5 -120.5zM279 156q24 103 114.5 168t210.5 79q-20 55 -64.5 88.5t-110.5 33.5q-93 0 -164.5 -59t-106 -146.5t-34.5 -183.5
q0 -64 17 -121t49.5 -103t87 -72.5t123.5 -26.5q62 0 118.5 28t99 71.5t85 112.5t73 133t65.5 151q-59 27 -134 32q1 -9 1 -26q0 -92 -52 -171t-142 -107l-34 81q65 20 100.5 77.5t35.5 125.5v14q-93 -16 -162.5 -70t-88.5 -136zM1107 785h-1q-24 -40 -49.5 -98.5
t-42.5 -105.5l-46 -130.5l-44 -126.5q55 -43 85 -107q23 220 98 568z" />
    <glyph glyph-name="B" unicode="B" horiz-adv-x="895" 
d="M297 313l16 -86q-27 -10 -62 -10q-118 0 -185 81t-67 198q0 72 27.5 141t80 127t140 93.5t196.5 35.5q97 0 176 -29.5t129.5 -93t50.5 -151.5q0 -71 -35 -133.5t-102 -97.5q92 -38 140 -115.5t48 -169.5q0 -63 -23.5 -122.5t-66.5 -107t-111.5 -76.5t-152.5 -29
q-134 0 -233 41q-70 -46 -154 -46l17 129q16 4 39 4q52 0 98 -24q51 50 85 169t61 315q40 290 75 393l93 -23q-43 -123 -68 -308q47 -2 86 -9q55 27 84 81.5t29 118.5q0 111 -80 172.5t-191 61.5q-87 0 -157.5 -30t-112.5 -78.5t-64 -105t-22 -115.5q0 -87 46.5 -146.5
t127.5 -59.5q20 0 42 5zM496 -182q119 0 188 87t69 203q0 84 -39 154t-112 102q-45 -13 -101 -15q-46 -360 -188 -500q84 -31 183 -31z" />
    <glyph glyph-name="C" unicode="C" horiz-adv-x="976" 
d="M388 672l-42 -78q-34 17 -73 17q-70 0 -121.5 -54t-51.5 -140q0 -108 73.5 -177.5t208.5 -70.5q1 123 31.5 249.5t84 232t135 172.5t173.5 67q86 0 131 -57.5t45 -150.5q0 -81 -34 -169.5t-95.5 -169.5t-161 -141t-216.5 -77q0 -272 118 -307q-6 36 -6 74q0 76 22 142
t67.5 109.5t104.5 43.5q61 0 94 -43t33 -109q0 -89 -58.5 -167.5t-162.5 -98.5q40 -90 119 -108l-28 -70q-64 14 -107.5 60t-64.5 114q-103 10 -159.5 107.5t-63.5 246.5q-171 0 -269 88.5t-98 216.5q0 123 77 198.5t182 75.5q56 0 113 -26zM806 840q-81 0 -155.5 -105
t-119 -255.5t-54.5 -301.5q99 19 181.5 78t132 136t76 157t26.5 150q0 64 -22.5 102.5t-64.5 38.5zM773 137q-53 0 -84.5 -64.5t-31.5 -152.5q0 -54 13 -102q74 18 119 89.5t45 142.5q0 39 -15.5 63t-45.5 24z" />
    <glyph glyph-name="D" unicode="D" horiz-adv-x="938" 
d="M76 -92q46 0 129 -35q63 61 105 245q-135 18 -207.5 118t-72.5 235q0 102 36 185t96.5 134.5t135 79.5t155.5 28q91 0 170.5 -31t142.5 -91t99 -159.5t36 -226.5q0 -112 -31.5 -222t-87 -199.5t-140.5 -145t-184 -55.5q-140 0 -247 42q-72 -47 -160 -47zM458 -182
q79 0 144 48t106 127t63 175.5t22 197.5q0 242 -94.5 362t-244.5 120q-141 0 -239 -108t-98 -273q0 -111 53 -196t150 -102q14 71 31 187q40 290 75 393l93 -23q-46 -130 -75 -370q-14 -111 -32 -186q72 16 115.5 73.5t43.5 125.5q0 59 -34 105l74 66q52 -65 52 -150
q0 -101 -72 -182t-193 -92q-50 -175 -137 -265q92 -33 197 -33z" />
    <glyph glyph-name="E" unicode="E" horiz-adv-x="786" 
d="M591 437l-10 -82h-6q-61 0 -109 27q-109 -35 -169.5 -130.5t-60.5 -203.5q0 -99 51.5 -167t143.5 -68q54 0 97 22.5t68.5 59t38.5 78t13 84.5q0 58 -23 97t-63 39q-36 0 -60 -32.5t-24 -79.5q0 -46 23 -86l-92 -45q-27 52 -27 108q0 81 50.5 138t134.5 57
q82 0 126.5 -54.5t44.5 -135.5q0 -53 -20 -105t-58 -96.5t-99 -71.5t-136 -27q-139 0 -214 80t-75 198q0 119 76 224.5t212 148.5q-21 21 -34 44q-33 -3 -68 -3q-154 0 -231.5 60.5t-77.5 143.5q0 66 45.5 115t117.5 49q107 0 161 -95l-69 -52q-31 66 -92 66
q-38 0 -61 -25.5t-23 -61.5q0 -59 58 -104.5t172 -45.5q16 0 46 2q-15 47 -15 100q0 71 25 133.5t77 104t120 41.5q71 0 110.5 -41t39.5 -104q0 -81 -65 -158t-184 -109q11 -26 27 -43q36 6 78 6h10zM571 836q-57 0 -89.5 -66.5t-32.5 -156.5q0 -45 9 -86q86 31 130.5 94.5
t44.5 127.5q0 38 -16.5 62.5t-45.5 24.5z" />
    <glyph glyph-name="F" unicode="F" horiz-adv-x="1086" 
d="M706 157l-77 -30q-16 31 -16 64q0 64 57 112t153 55q29 257 92 386h-22q-66 0 -229.5 30.5t-274.5 30.5q-69 0 -125.5 -26t-91.5 -68t-53.5 -93.5t-18.5 -104.5q0 -93 53 -158t151 -65q97 0 142 60t45 154q0 26 -3 55l90 16q4 -40 4 -60q0 -121 -66 -198t-211 -77
q-144 0 -222.5 83.5t-78.5 202.5q0 65 25 127t72 113.5t123 82.5t168 31q93 0 194.5 -20t185 -40.5t133.5 -20.5q18 0 44 2q41 55 90 66l35 -45q-28 -45 -78 -64q-42 -117 -72 -396q35 5 71 19q9 25 19.5 48.5t16.5 34.5l6 10l55 -28q-8 -60 -60 -97q-11 -103 -11 -202h-72
q0 79 26 174q-32 -9 -57 -13q-16 -128 -47.5 -226t-69 -157.5t-84.5 -96.5t-91.5 -51t-94.5 -14q-114 0 -172.5 54.5t-58.5 131.5q0 69 43.5 120.5t113.5 52.5l3 -91q-32 0 -52 -27.5t-20 -64.5q0 -49 36.5 -85.5t109.5 -36.5q35 0 64.5 9.5t63.5 40.5t61 82t52 141t41 211
q-118 -16 -118 -98q0 -19 8 -46z" />
    <glyph glyph-name="G" unicode="G" horiz-adv-x="914" 
d="M874 285l-42 -92q-2 -6 -6.5 -39t-14 -94.5t-21.5 -123.5q-28 -141 -82.5 -214t-158.5 -73q-69 0 -107.5 41t-38.5 97q0 54 35.5 94.5t98.5 41.5l12 -88q-29 -4 -45.5 -24.5t-16.5 -45.5q0 -27 18 -46.5t50 -19.5q20 0 36 4.5t29 16.5t22.5 24t18.5 35t15 41t13 51
l11.5 56l12 64.5l12.5 68.5q-54 -66 -156 -66q-73 0 -122 48t-73 129q-30 -2 -46 -2q-85 0 -151.5 23.5t-106 62.5t-60 86t-20.5 98q0 98 66.5 170t177.5 72q47 0 87 -23l-33 -67q-37 21 -76 21q-68 0 -112 -54.5t-44 -127.5q0 -87 67.5 -149t204.5 -62q24 0 35 1
q-8 51 -8 103q0 97 25.5 195t71 180.5t118.5 134.5t159 52q83 0 126.5 -54.5t43.5 -141.5q0 -56 -17.5 -117.5t-54.5 -122.5t-87.5 -113.5t-122 -93t-153.5 -59.5q31 -140 133 -140q41 0 71 18.5t48 51.5t29.5 65.5t24.5 75.5t24 66zM806 699q0 61 -21 98.5t-60 37.5
q-80 0 -144.5 -84.5t-97 -203.5t-32.5 -237q0 -44 4 -75q69 18 128.5 57.5t99.5 88.5t68.5 105.5t41.5 110.5t13 102z" />
    <glyph glyph-name="H" unicode="H" horiz-adv-x="957" 
d="M1249 714h-97q3 27 3 45q0 40 -12 53.5t-34 13.5q-167 0 -280 -1053h-115l44.5 251.5t49.5 271.5q-32 -2 -49 -2t-50 1t-49 1l-7 -36q-16 -83 -35 -147.5t-53 -133t-77.5 -113.5t-110 -74t-149.5 -29q-73 0 -130 24t-91.5 64.5t-52.5 90.5t-18 106q0 81 33.5 153.5
t103.5 121t161 48.5q87 0 136 -53t49 -132q0 -94 -66 -176l-73 56q58 76 58 147q0 48 -29 78t-81 30q-91 0 -149 -84t-58 -190q0 -99 54.5 -166.5t160.5 -67.5q55 0 102 26.5t80 68t60.5 104t45 123.5t33.5 136l3 15q-46 -12 -77 -34l-29 71q47 24 119 26q48 246 79 358
q-21 -8 -53 -17.5l-54 -16t-47 -17t-40.5 -21.5t-25.5 -29t-10 -40q0 -65 96 -65l-9 -84q-80 0 -125.5 39t-45.5 95q0 39 24 76.5t70 62.5q29 16 70 29.5t92 27.5t77 23q19 61 40 112l98 -16q-11 -64 -58 -105q-14 -52 -26.5 -110.5t-19.5 -98l-18.5 -106.5l-17.5 -100
q13 -1 36 -2.5t41 -2.5t34 -1q13 0 37 2q28 140 54.5 234t62 169t80.5 110t103 35q67 0 100 -40t33 -110q0 -17 -1 -26z" />
    <glyph glyph-name="I" unicode="I" horiz-adv-x="565" 
d="M522 882l109 -7q-14 -64 -59 -120q-24 -110 -46 -240.5t-33.5 -210.5t-36.5 -268l-35 -263h-98l29 195l29 194.5l25.5 161.5t31 176.5l32.5 159.5q-42 -30 -108 -68.5l-113.5 -67.5t-95 -65t-72.5 -78.5t-25 -90.5q0 -56 32.5 -90.5t82.5 -34.5q41 0 66.5 26.5t25.5 62.5
q0 54 -53 80l41 68q53 -23 80 -65t27 -91q0 -69 -50 -120t-136 -51q-87 0 -148 56.5t-61 140.5q0 70 35 128.5t96.5 102.5t124 77.5l141.5 73.5t124 72q26 111 38 156z" />
    <glyph glyph-name="J" unicode="J" horiz-adv-x="527" 
d="M252 -245q49 66 79.5 212t60.5 350t62 323q-31 -28 -91 -77t-105.5 -90t-76.5 -78q-94 -114 -94 -219q0 -57 29.5 -91t72.5 -34q39 0 64 27.5t25 61.5q0 49 -46 63l30 61q38 -12 58.5 -44.5t20.5 -74.5q0 -59 -39.5 -104.5t-109.5 -45.5q-87 0 -150.5 53.5t-63.5 151.5
q0 58 26.5 116.5t66.5 101.5q75 79 229.5 194t190.5 148q38 108 64 132l53 -33q-13 -67 -68 -133q-7 -49 -20 -174.5t-26.5 -224.5t-35.5 -219t-56.5 -218t-79.5 -161q-61 -86 -173 -86q-54 0 -84 31.5t-30 81.5q0 54 40 94t108 41l2 -79q-42 -6 -63.5 -27t-21.5 -46
q0 -21 13.5 -33.5t34.5 -12.5q56 0 104 62z" />
    <glyph glyph-name="K" unicode="K" horiz-adv-x="915" 
d="M280 -187q225 0 323 426q-19 0 -29 1l15 84q10 -2 30 -8l29 168.5t44 228.5q-26 -10 -67 -22.5l-68 -21t-54.5 -22.5t-41.5 -34t-14 -47q0 -65 96 -65l-9 -84q-80 0 -125.5 39t-45.5 95q0 86 94 139q39 22 134 49.5t117 35.5q18 62 37 107l89 -16q-11 -63 -57 -104
q-23 -95 -46.5 -257.5t-30.5 -203.5q45 23 81.5 81t59.5 126t51.5 143t56.5 135t75.5 99.5t107.5 39.5q52 0 78.5 -27t26.5 -69q0 -2 -0.5 -6.5t-0.5 -6.5h-73v5q0 21 -11 36.5t-31 15.5q-35 0 -63.5 -38.5t-47.5 -97.5t-45 -132t-54.5 -140t-78.5 -124.5t-114 -81.5
q52 -48 87 -130.5t53 -163l35.5 -155.5t47 -121.5t75.5 -46.5q45 0 70.5 23t44.5 70l77 -28q-37 -71 -84 -98.5t-113 -27.5q-73 0 -123 51t-76 133.5t-43 167.5t-37.5 172t-45.5 129q-17 -80 -36 -141t-52 -126.5t-75 -107t-106.5 -69t-144.5 -27.5q-145 0 -221 83.5
t-76 202.5q0 129 83 228.5t220 99.5q90 0 141 -58.5t51 -145.5q0 -83 -48 -163l-80 45q42 71 42 137q0 56 -30 91.5t-83 35.5q-92 0 -151 -84.5t-59 -190.5q0 -98 55 -164.5t164 -66.5z" />
    <glyph glyph-name="L" unicode="L" horiz-adv-x="838" 
d="M375 174q66 0 125 17q11 59 23 165q18 164 44 272t60.5 164t71.5 77t87 21q70 0 108 -57t38 -148q0 -93 -36.5 -191.5t-116.5 -189.5t-188 -137q-29 -138 -81 -231q20 -9 68.5 -32.5t73 -34t64.5 -21t77 -10.5q46 0 76 30.5t39 68.5l81 -21q-20 -71 -70.5 -112
t-123.5 -41q-41 0 -87 13.5t-74.5 26.5t-82 42.5t-74.5 39.5q-92 -122 -236 -122q-64 0 -100 32t-36 77q0 48 41.5 84t116.5 36q91 0 173 -28q30 67 52 171q-55 -11 -113 -11q-96 0 -170 24t-117.5 64.5t-65.5 89t-22 102.5q0 107 75 188t194 81q63 0 116 -30l-39 -80
q-34 21 -78 21q-84 0 -136 -56.5t-52 -133.5q0 -90 75 -155t220 -65zM785 840q-19 0 -34 -8.5t-34 -38.5t-34.5 -80.5t-32 -141.5t-29.5 -215q-4 -46 -16 -115q79 51 136 138t81.5 171.5t24.5 159.5q0 58 -16.5 94t-45.5 36zM254 -189q95 0 157 104q-71 28 -139 28
q-44 0 -69 -22t-25 -51q0 -24 20 -41.5t56 -17.5z" />
    <glyph glyph-name="M" unicode="M" horiz-adv-x="1133" 
d="M1053 882h93q0 -148 -96 -392q-16 -157 -16 -306q0 -111 9.5 -205t29 -171t54 -120.5t80.5 -43.5q71 0 108 93l85 -30q-57 -141 -186 -141q-261 0 -261 521q0 86 8 196q-85 -188 -114 -260v-38q0 -103 -14 -202l-98 8q0 78 36 186q-5 100 -28 318q-64 -250 -188 -386
t-285 -136q-145 0 -221 83.5t-76 202.5q0 129 83 228.5t220 99.5q90 0 141 -58.5t51 -145.5q0 -84 -48 -163l-84 46q43 71 43 140q0 55 -28.5 89t-81.5 34q-89 0 -147.5 -84t-58.5 -188q0 -95 54.5 -159.5t162.5 -64.5q143 0 267 163t181 427q-19 173 -19 297q0 22 2 70h91
q-1 -126 -16 -254q44 -294 53 -389l71.5 149l65.5 134q27 219 77 452z" />
    <glyph glyph-name="N" unicode="N" horiz-adv-x="996" 
d="M260 -167q79 0 149.5 49.5t120.5 132.5t83 188.5t44 220.5q-66 205 -66 368l85 16q37 -121 37 -298l39.5 -92.5l48.5 -116.5t40 -103q32 199 96 357.5t150 250t178 91.5q95 0 147 -57l-52 -82q-30 45 -104 45q-120 0 -230 -198t-147 -522q31 -115 31 -271v-39h-86
q-9 69 -9 142q0 45 3 88q-17 48 -59 152l-62 156q-17 -109 -51.5 -202t-87.5 -170.5t-131 -121.5t-172 -44q-137 0 -209 81.5t-72 198.5q0 83 34.5 158t105 125.5t162.5 50.5q90 0 141 -58.5t51 -145.5q0 -84 -48 -163l-84 46q43 71 43 140q0 55 -28.5 89t-81.5 34
q-59 0 -107.5 -42.5t-73.5 -106.5t-25 -132q0 -92 49.5 -153.5t147.5 -61.5z" />
    <glyph glyph-name="O" unicode="O" horiz-adv-x="1133" 
d="M915 823l18 25q80 -40 122.5 -146t42.5 -246q0 -95 -19 -191.5t-58 -186t-93.5 -158.5t-131 -110.5t-164.5 -41.5q-130 0 -199 96.5t-78 251.5q-90 2 -161 29t-113.5 70t-65 94.5t-22.5 107.5q0 109 76.5 188t207.5 79q49 0 91 -25l-53 -87q-32 22 -78 22
q-76 0 -120.5 -51.5t-44.5 -125.5q0 -43 17 -84t50 -76t88.5 -57t126.5 -24q2 120 36 245.5t90 228.5t138 169t172 66q82 0 125 -62zM450 121q4 -136 50.5 -219.5t136.5 -83.5q82 0 153.5 63t118 162t73 217.5t26.5 233.5q0 212 -81 310q25 -49 25 -121q0 -81 -34 -171
t-95 -172t-159 -142.5t-214 -76.5zM786 835q-87 0 -164 -102.5t-121.5 -251t-50.5 -297.5q93 20 173.5 82.5t131 142t79.5 162t29 148.5q0 54 -19.5 85t-57.5 31z" />
    <glyph glyph-name="P" unicode="P" horiz-adv-x="824" 
d="M516 752l91 -31q-16 -28 -29.5 -67t-22 -70t-18 -87t-13.5 -82.5t-12.5 -95t-11.5 -88.5q99 13 163 109t64 212q0 57 -18 107.5t-54 92.5t-97.5 66.5t-141.5 24.5q-82 0 -148 -29t-106 -76.5t-60.5 -103.5t-20.5 -114q0 -89 46.5 -150.5t127.5 -61.5q20 0 42 5l16 -86
q-27 -10 -62 -10q-118 0 -185 82.5t-67 200.5q0 72 26.5 140t77.5 125.5t135.5 92.5t189.5 35q80 0 145.5 -19t110.5 -51.5t75.5 -76.5t44.5 -93t14 -102q0 -142 -91 -254t-235 -118q-11 -74 -22.5 -128.5t-33 -111t-48.5 -92t-69 -58t-95 -22.5q-86 0 -133 45.5t-47 123.5
q0 65 42.5 113.5t114.5 51.5v-82q-37 -4 -61 -35t-24 -67q0 -47 30.5 -74t74.5 -27q72 0 112.5 66.5t55.5 177t24.5 229.5t33.5 250t69 213z" />
    <glyph glyph-name="Q" unicode="Q" horiz-adv-x="738" 
d="M147 -248l14 92q59 -2 102 -7q154 106 260 325t106 408q0 120 -50.5 192.5t-153.5 72.5q-78 0 -142.5 -46t-104.5 -119t-61.5 -157.5t-21.5 -167.5q0 -109 36.5 -180t105.5 -71q68 0 109 57.5t41 138.5q0 121 -82 196l78 77q96 -87 96 -229q0 -116 -66.5 -203t-174.5 -87
q-119 0 -183 93t-64 232q0 91 28.5 181t81 165.5t137.5 122.5t187 47q156 0 233.5 -92t77.5 -242q0 -123 -48.5 -259.5t-141.5 -262t-210 -204.5q61 -13 209.5 -62t236.5 -49q117 0 130 115l116 -15q-2 -82 -58.5 -130t-166.5 -48q-83 0 -266.5 69t-263.5 83
q-66 -37 -109 -37q-12 0 -17 1z" />
    <glyph glyph-name="R" unicode="R" horiz-adv-x="795" 
d="M516 752l91 -31q-16 -28 -29.5 -67t-22 -70t-18 -87t-13.5 -82.5t-12.5 -95t-11.5 -88.5q99 13 163 109t64 212q0 57 -18 107.5t-54 92.5t-97.5 66.5t-141.5 24.5q-82 0 -148 -29t-106 -76.5t-60.5 -103.5t-20.5 -114q0 -89 46.5 -150.5t127.5 -61.5q20 0 42 5l16 -77
q-32 -7 -65 -7q-112 0 -180 77.5t-68 193.5q0 72 26.5 140t77 125.5t135 92.5t189.5 35q80 0 145.5 -19t110.5 -51.5t75.5 -76.5t44.5 -93t14 -102q0 -128 -77.5 -236.5t-199.5 -129.5q41 -30 73.5 -98.5t54 -142t45.5 -143t61 -114.5t88 -45q45 0 70.5 23t44.5 70l77 -28
q-37 -71 -84 -98.5t-113 -27.5q-72 0 -127 45.5t-88 118t-57 146.5l-49 148.5t-49 107.5q-11 -68 -23.5 -119.5t-33.5 -102.5t-48.5 -84t-67.5 -53.5t-91 -20.5q-86 0 -133 45.5t-47 123.5q0 65 42.5 113.5t114.5 51.5v-82q-37 -4 -61 -35t-24 -67q0 -47 30.5 -74t74.5 -27
q72 0 112.5 66.5t55.5 177t24.5 229.5t33.5 250t69 213z" />
    <glyph glyph-name="S" unicode="S" horiz-adv-x="1059" 
d="M5 111l20 79q79 -16 163 -19v13q0 76 21.5 146t61.5 125.5t104.5 89t143.5 33.5q117 0 181 -74.5t73 -189.5q66 41 118 89q-3 57 -3 105q0 378 152 378q45 0 67 -31t22 -76q0 -168 -140 -339l3 -69q0 -7 0.5 -20t0.5 -19q0 -90 -17 -172.5t-52.5 -154t-86 -124.5
t-121.5 -83t-155 -30q-152 0 -246 93t-119 233q-89 0 -191 17zM612 -62l-50 79q109 64 141 196q-193 -101 -419 -117q23 -120 99 -198t199 -78q145 0 229 135t84 350q0 6 -0.5 18.5t-0.5 19.5q-61 -53 -121 -91q-5 -101 -48.5 -188t-112.5 -126zM713 281v19q0 98 -51.5 166
t-142.5 68q-76 0 -132.5 -50.5t-84 -127.5t-27.5 -166q0 -3 0.5 -9.5t0.5 -10.5q239 7 437 111zM1078 780q0 21 -9.5 35.5t-26.5 14.5q-36 0 -49.5 -37t-13.5 -116q0 -69 6 -168q93 132 93 271z" />
    <glyph glyph-name="T" unicode="T" horiz-adv-x="994" 
d="M1039 867l35 -45q-28 -45 -78 -64q-43 -119 -72 -402q-15 -140 -45.5 -247t-68.5 -171t-86.5 -104.5t-94.5 -55.5t-98 -15q-114 0 -172.5 54.5t-58.5 131.5q0 69 43.5 120.5t113.5 52.5l3 -91q-32 0 -52 -27.5t-20 -64.5q0 -49 36.5 -85.5t109.5 -36.5q37 0 67.5 10.5
t66 44.5t63 91t52.5 157t40 236q28 256 92 388h-22q-66 0 -229.5 30.5t-274.5 30.5q-69 0 -125.5 -26t-91.5 -68t-53.5 -93.5t-18.5 -104.5q0 -93 53 -158t151 -65q97 0 142 60t45 154q0 26 -3 55l90 16q4 -40 4 -60q0 -121 -66 -198t-211 -77q-144 0 -222.5 83.5
t-78.5 202.5q0 65 25 127t72 113.5t123 82.5t168 31q93 0 194.5 -20t185 -40.5t133.5 -20.5q18 0 44 2q41 55 90 66z" />
    <glyph glyph-name="U" unicode="U" horiz-adv-x="1102" 
d="M1075 -35l84 -2q-9 -98 -51 -147t-109 -49q-74 0 -105.5 51.5t-31.5 166.5q0 26 1 40q-93 -257 -208 -257q-123 0 -123 158q0 84 69 314.5t69 312.5q0 130 -64 202t-173 72q-137 0 -228.5 -99t-91.5 -247q0 -114 56 -175.5t133 -61.5q79 0 132.5 55.5t69.5 158.5l93 -22
q-23 -124 -101 -188t-191 -64q-127 0 -207 83.5t-80 220.5q0 174 119.5 284.5t301.5 110.5q147 0 232.5 -84t85.5 -246q0 -77 -32.5 -196l-65 -238t-32.5 -195q0 -29 12 -53t40 -24q35 0 69.5 40t60.5 104t45 127.5t32 124.5q41 260 148 643l87 -11q-11 -70 -31 -146.5
t-34 -118.5l-15 -41q-31 -105 -62.5 -303.5t-31.5 -305.5q0 -131 61 -131q30 0 47.5 37t19.5 99z" />
    <glyph glyph-name="V" unicode="V" horiz-adv-x="1027" 
d="M789 -134q58 295 150.5 527t210.5 367.5t241 135.5q95 0 147 -57l-61 -71q-30 45 -104 45q-109 0 -216.5 -139.5t-197 -376.5t-158.5 -549l-104 13q0 31 4.5 146t4.5 190q0 81 -4.5 149.5t-16.5 144.5t-35 134t-56 106t-84.5 74t-117.5 26q-135 0 -217.5 -98t-82.5 -248
q0 -114 56 -175.5t133 -61.5q79 0 132.5 55.5t69.5 158.5l93 -22q-23 -124 -101 -188t-191 -64q-127 0 -207 83.5t-80 220.5q0 176 110.5 285.5t290.5 109.5q407 0 407 -642q0 -131 -16 -279z" />
    <glyph glyph-name="W" unicode="W" horiz-adv-x="1305" 
d="M1035 804l75 -17q-47 -330 -47 -640q0 -79 3 -149.5t6 -101.5l3 -30q46 233 96 411t113.5 322.5t142.5 220.5t170 76q95 0 147 -57l-61 -71q-30 45 -104 45q-55 0 -104 -35t-92.5 -106t-81.5 -159.5t-76 -216.5t-69.5 -254.5t-68.5 -293.5l-100 13q-21 94 -21 259
q0 122 11 272t21 240l11 89q-34 -87 -77 -250t-68.5 -274l-76.5 -342l-79 18q-33 117 -33 306q0 22 0.5 67.5t0.5 68.5q0 66 -4 121.5t-14.5 117.5t-32 109t-52.5 86.5t-80 60.5t-111 21q-135 0 -217.5 -98t-82.5 -248q0 -114 56 -175.5t133 -61.5q79 0 132.5 55.5
t69.5 158.5l93 -22q-23 -124 -101 -188t-191 -64q-127 0 -207 83.5t-80 220.5q0 176 110.5 285.5t290.5 109.5q135 0 223 -66t125 -181q39 -124 39 -345q0 -31 -0.5 -88t-0.5 -81q0 -95 9 -131q135 694 252 909z" />
    <glyph glyph-name="X" unicode="X" horiz-adv-x="966" 
d="M486 825q-52 0 -81 -30.5t-29 -72.5t28.5 -74.5t80.5 -36.5l-23 -103q-84 0 -132.5 55t-48.5 129q0 83 57.5 138t166.5 55q63 0 111.5 -31t81.5 -90.5t54.5 -127.5t38.5 -160q33 79 59.5 134t64 115t74.5 96.5t86 60t104 23.5q61 0 104.5 -32.5t60.5 -77.5l-72 -43
q-29 77 -112 77q-47 0 -90.5 -24.5t-76.5 -61.5t-68.5 -100t-60 -118.5t-58.5 -139.5q7 -47 16 -116l15.5 -118t16 -111.5t19.5 -107.5t23.5 -93.5t30.5 -81.5t39 -60.5t50.5 -41t62.5 -13.5q46 0 71 22.5t44 70.5l90 -33q-36 -69 -88 -95t-122 -26q-181 0 -263 182
q-50 110 -84 359l-8 58q-31 -72 -59 -125.5t-68 -109.5t-82.5 -91.5t-99 -58t-121.5 -22.5q-138 0 -210.5 82t-72.5 199q0 83 34.5 158t105 125t162.5 50q90 0 141 -58.5t51 -145.5q0 -84 -48 -163l-84 46q43 71 43 140q0 55 -28.5 89t-81.5 34q-89 0 -147.5 -85.5
t-58.5 -190.5q0 -89 49.5 -149.5t147.5 -60.5q61 0 115 23.5t94 60t79 95.5t67 115t60 134l-3 27q-13 95 -24.5 161.5t-26 130t-30 104t-36 72t-45.5 45.5t-56 14z" />
    <glyph glyph-name="Y" unicode="Y" horiz-adv-x="1040" 
d="M1008 883l81 -15q-6 -66 -22 -132t-29 -99l-13 -33q-7 -47 -18 -130.5l-19 -142.5t-21 -140.5t-28 -140t-35 -125.5t-46 -112.5t-58.5 -85t-75 -59t-92.5 -19.5q-54 0 -84 31.5t-30 81.5q0 54 40 94t108 41l2 -79q-42 -6 -63.5 -27t-21.5 -46q0 -21 13.5 -33.5
t34.5 -12.5q44 0 80.5 33.5t64 97t48 136t38.5 167.5q-70 -143 -159 -143q-123 0 -123 158q0 56 29 195.5t29 209.5q0 130 -64 202t-173 72q-137 0 -228.5 -99t-91.5 -247q0 -114 56 -175.5t133 -61.5q79 0 132.5 55.5t69.5 158.5l93 -22q-23 -124 -101 -188t-191 -64
q-127 0 -207 83.5t-80 220.5q0 174 119.5 284.5t301.5 110.5q147 0 232.5 -84t85.5 -246q0 -75 -25 -216t-25 -191q0 -29 12 -53t40 -24q58 0 101.5 82.5t72.5 222.5l10 74l10.5 75l10 68t11 67.5l11 58.5t12 55.5t12.5 44t14.5 39.5t15.5 27z" />
    <glyph glyph-name="Z" unicode="Z" horiz-adv-x="643" 
d="M372 835q-81 0 -143 -54.5t-91 -130.5t-29 -155q0 -80 32 -131.5t93 -51.5q51 0 86 43t35 98q0 40 -21 73.5t-64 50.5l59 84q46 -18 72.5 -69.5t26.5 -114.5q0 -88 -50 -151.5t-143 -63.5q-105 0 -162 73.5t-57 180.5q0 52 14 104t43.5 100t70.5 84.5t100 58.5t128 22
q148 0 228.5 -84.5t80.5 -213.5t-80.5 -260.5t-229.5 -219.5q110 -59 110 -192q0 -102 -66 -184t-164 -82q-62 0 -96.5 38t-34.5 95q0 53 30 106t85 87l46 -79q-94 -64 -94 -132q0 -28 18.5 -46.5t45.5 -18.5q66 0 105.5 65t39.5 149q0 121 -73 168q-66 -33 -104 -33
q-12 0 -17 1l14 92h4q50 0 92 -11q128 76 198.5 204t70.5 253q0 109 -54 178.5t-155 69.5z" />
    <glyph glyph-name="bracketleft" unicode="[" horiz-adv-x="183" 
d="M126 779q44 -11 85 -11q50 0 92 16l11 -58q-33 -20 -82 -20q-28 0 -61 7q-19 -154 -50 -338.5t-53 -292.5l-21 -107q28 4 42 4q44 0 89 -17l-20 -63q-38 15 -87 15q-41 0 -94 -11q39 177 76 396t55 349z" />
    <glyph glyph-name="backslash" unicode="\" horiz-adv-x="159" 
d="M129 3l-59 -8q-36 281 -36 600l2 128l62 -3q-2 -47 -2 -125q0 -311 33 -592z" />
    <glyph glyph-name="bracketright" unicode="]" horiz-adv-x="198" 
d="M46 -96q-44 11 -85 11q-50 0 -92 -16l-11 58q33 20 81 20q29 0 62 -7q19 154 50 338.5t53 291.5l21 108q-19 -4 -42 -4q-44 0 -89 17l20 63q41 -16 86 -16q35 0 95 12q-39 -177 -76 -396t-55 -350z" />
    <glyph glyph-name="asciicircum" unicode="^" horiz-adv-x="231" 
d="M122 607l41 -5q18 -28 34.5 -59t23.5 -48l7 -17l-61 -29q-6 39 -37 104q-34 -54 -84 -93l-40 46q38 28 67 53t39 37z" />
    <glyph glyph-name="underscore" unicode="_" horiz-adv-x="169" 
d="M0 -24h179l-9 -52h-179z" />
    <glyph glyph-name="grave" unicode="`" horiz-adv-x="174" 
d="M16 602l62 43q35 -76 84 -130l-36 -32q-7 4 -18.5 13t-40.5 39.5t-51 66.5z" />
    <glyph glyph-name="a" unicode="a" horiz-adv-x="347" 
d="M221 399l11 56h71q-40 -177 -63 -340q-2 -11 -2 -26q0 -22 8 -22q6 0 20 16t36.5 57.5t44.5 98.5q5 0 16.5 -5t11.5 -9q-88 -230 -156 -230q-50 0 -50 98v11q-43 -114 -116 -114q-69 0 -69 127q0 72 22.5 152.5t63.5 138.5t86 58q55 0 65 -67zM161 394q-30 0 -61.5 -97
t-31.5 -170q0 -52 21 -52q33 0 68 91.5t35 164.5q0 63 -31 63z" />
    <glyph glyph-name="b" unicode="b" horiz-adv-x="318" 
d="M105 461l-3 -17l-4 -19q34 34 75 34q95 0 95 -174q0 -64 -27 -138q50 22 77 92q5 0 16.5 -5t11.5 -9q-17 -47 -51 -79t-74 -44q-59 -107 -125 -107q-100 0 -100 169q0 83 25 218q44 241 70 312q41 100 100 104q59 0 59 -59q0 -49 -39.5 -124t-105.5 -154zM189 305
q0 89 -38 89q-32 0 -52.5 -37t-20.5 -87q0 -48 21 -85.5t61 -45.5q29 77 29 166zM204 711q0 2 0.5 4.5t0.5 3.5q0 14 -9 14q-28 0 -75 -199q67 99 83 177zM98 69q25 0 45 33q-51 12 -74 64q0 -97 29 -97z" />
    <glyph glyph-name="c" unicode="c" horiz-adv-x="291" 
d="M222 227l-64 34q33 56 33 108q0 35 -20 35q-38 0 -67.5 -69.5t-29.5 -144.5q0 -51 17.5 -83t53.5 -32q37 0 75.5 42t70.5 122q5 0 16.5 -5t11.5 -9q-13 -36 -31.5 -71.5t-45.5 -75t-63 -64t-73 -24.5q-56 0 -84 49.5t-28 125.5q0 70 21.5 138t64 115.5t95.5 47.5
q41 0 60.5 -28.5t19.5 -75.5q0 -64 -33 -135z" />
    <glyph glyph-name="d" unicode="d" horiz-adv-x="355" 
d="M221 399l70 388h79q-3 -65 -27 -199.5t-56 -256.5q-27 -152 -27 -203q0 -29 10 -29q31 0 85 140q5 0 16.5 -5t11.5 -9q-88 -230 -164 -230q-50 0 -50 98v11q-43 -114 -115 -114q-35 0 -52 34.5t-17 92.5q0 72 22.5 152.5t63 138.5t85.5 58q55 0 65 -67zM161 394
q-30 0 -61 -97t-31 -170q0 -52 20 -52q33 0 68 91.5t35 164.5q0 63 -31 63z" />
    <glyph glyph-name="e" unicode="e" horiz-adv-x="286" 
d="M140 75q85 0 146 164q5 0 16.5 -5t11.5 -9q-45 -117 -88 -176t-110 -59q-62 0 -92.5 49t-30.5 125q0 70 22.5 138.5t67 116t97.5 47.5q36 0 55.5 -23t19.5 -59q0 -59 -48 -116t-130 -70v-15q0 -108 63 -108zM172 404q-29 0 -56 -51t-36 -117q51 25 79.5 67.5t28.5 75.5
q0 25 -16 25z" />
    <glyph glyph-name="f" unicode="f" horiz-adv-x="213" 
d="M52 -232q-42 0 -67.5 29t-25.5 108q0 155 57 443.5t100 387.5q28 62 81 62q28 0 47.5 -21t19.5 -58q0 -73 -20.5 -150.5t-53.5 -144.5t-59.5 -110t-53.5 -81q-12 -63 -25 -148q109 15 161 154q5 0 16.5 -5t11.5 -9q-58 -150 -156 -181q57 -60 57 -143q0 -55 -25.5 -94
t-64.5 -39zM219 711q0 22 -10 22q-14 0 -46 -117t-66 -281q47 86 84 190.5t38 185.5zM59 -182q15 0 24.5 19.5t9.5 48.5q0 78 -50 128q-8 -74 -8 -119q0 -77 24 -77z" />
    <glyph glyph-name="g" unicode="g" horiz-adv-x="335" 
d="M335 239q7 0 17.5 -4.5t10.5 -8.5v-1q-47 -121 -147 -225l-22 -129q-14 -80 -43.5 -127.5t-75.5 -47.5q-35 0 -56 20t-21 59q0 31 19 63.5t42 57.5t64 64q9 8 13 12q3 15 8 46.5t8 46.5q-42 -75 -99 -75q-69 0 -69 127q0 72 22.5 152.5t63.5 138.5t86 58q44 0 55 -53
l9 43h82q-9 -34 -74 -389q73 84 107 172zM161 394q-30 0 -61.5 -97t-31.5 -170q0 -52 21 -52q33 0 68 91.5t35 164.5q0 63 -31 63zM54 -224q0 -27 20 -27q21 0 31 51l20 107q-71 -74 -71 -131z" />
    <glyph glyph-name="h" unicode="h" horiz-adv-x="338" 
d="M42 0h-81q-1 9 -1 27q0 35 8 75.5t16 63.5l7 22q73 441 120 548q13 31 36.5 46.5t47.5 15.5q69 0 69 -63q0 -55 -46.5 -140.5t-101.5 -153.5q-2 -13 -11 -55q53 81 117 81q58 0 58 -71q0 -48 -32.5 -151t-32.5 -143q0 -34 20 -34q38 0 103 171q5 0 16.5 -5t11.5 -9
l-27.5 -69t-27.5 -60t-33.5 -54t-37 -32.5t-45.5 -14.5q-28 0 -48 23t-20 66q0 58 32.5 159t32.5 132q0 20 -16 20q-23 0 -45.5 -35t-46.5 -127t-42 -233zM209 719q0 14 -9 14q-12 0 -25 -41.5t-40 -166.5q74 143 74 194z" />
    <glyph glyph-name="i" unicode="i" horiz-adv-x="191" 
d="M47 456h85q-4 -19 -14 -63l-14 -62l-11.5 -52.5t-10.5 -53l-7 -43.5t-5.5 -44t-1.5 -36q0 -34 20 -34q38 0 103 171q5 0 16.5 -4.5t11.5 -8.5v-1l-14 -37.5l-14.5 -38l-14 -34.5t-16 -33.5t-16 -27.5t-18 -25l-19.5 -17.5t-23.5 -13t-25.5 -3.5q-72 0 -72 119q0 31 4 69
t13 81l15 70.5t16.5 71t12.5 50.5zM106 514q-23 0 -35 14.5t-12 36.5q0 29 19.5 54t50.5 25q23 0 35 -14.5t12 -37.5q0 -29 -19.5 -53.5t-50.5 -24.5z" />
    <glyph glyph-name="j" unicode="j" horiz-adv-x="200" 
d="M200 239q7 0 17.5 -4.5t10.5 -8.5v-1q-47 -121 -147 -225l-22 -129q-14 -80 -43.5 -127.5t-75.5 -47.5q-35 0 -56 20t-21 59q0 31 19 63.5t42 57.5t64 64q9 8 13 12q18 100 54 322l-27 -69q-28 5 -28 13v1l36.5 91.5t48.5 125.5h82q-9 -34 -74 -389q73 84 107 172z
M-81 -224q0 -27 20 -27q9 0 15.5 8.5t12 28t8.5 34.5t8 45l7 42q-71 -76 -71 -131zM136 500q-23 0 -35 14.5t-12 36.5q0 29 19.5 54t50.5 25q23 0 35 -14.5t12 -37.5q0 -29 -19.5 -53.5t-50.5 -24.5z" />
    <glyph glyph-name="k" unicode="k" horiz-adv-x="311" 
d="M42 0h-81q-1 9 -1 27q0 35 8 75.5t16 63.5l7 22q73 441 120 548q13 31 36.5 46.5t47.5 15.5q69 0 69 -63q0 -55 -46.5 -140.5t-101.5 -153.5l-16 -83q52 108 116 108q59 0 59 -68q0 -52 -36.5 -113.5t-91.5 -92.5q12 -19 20 -49.5t14.5 -49t18.5 -18.5q20 0 50 41.5
t61 122.5q5 0 16.5 -5t11.5 -9q-21 -54 -35 -86t-35 -70t-43.5 -56t-47.5 -18q-23 0 -39 11.5t-25 33.5t-14 42t-10 48t-8 41h-15q-17 -110 -25 -171zM187 394h-5q-42 0 -100 -134l-5 -31q14 0 32 -6q33 27 61.5 75t28.5 76q0 17 -12 20zM208 711q0 2 0.5 4.5t0.5 3.5
q0 14 -9 14q-12 0 -25 -41.5t-40 -166.5q57 105 73 186z" />
    <glyph glyph-name="l" unicode="l" horiz-adv-x="226" 
d="M113 66q46 0 113 173q4 0 14 -5t10 -8v-1q-46 -125 -84.5 -180t-85.5 -55q-84 0 -84 163q0 101 32 283q32 181 76 272.5t90 91.5q67 0 67 -93q0 -68 -30 -161q-49 -157 -148 -278q-8 -69 -8 -114q0 -88 38 -88zM217 711q0 22 -10 22q-20 0 -56.5 -129.5t-58.5 -272.5
q47 86 85.5 192t39.5 188z" />
    <glyph glyph-name="m" unicode="m" horiz-adv-x="511" 
d="M37 0h-87q9 91 37 166q30 168 49 290h86l-13 -75q51 86 108 86q28 0 41.5 -19t13.5 -50q0 -7 -2 -25q57 94 125 94q58 0 58 -71q0 -48 -32.5 -151t-32.5 -143q0 -34 20 -34q38 0 103 171q5 0 16.5 -5t11.5 -9l-27.5 -69t-27.5 -60t-33.5 -54t-37 -32.5t-45.5 -14.5
q-28 0 -48 23t-20 66q0 58 32.5 159t32.5 132q0 20 -16 20q-14 0 -30.5 -17t-37 -63t-36.5 -115q-24 -132 -41 -200h-91q70 321 70 367q0 21 -13 21q-25 0 -53.5 -59t-47.5 -162z" />
    <glyph glyph-name="n" unicode="n" horiz-adv-x="341" 
d="M37 0h-87q9 91 37 166q30 168 49 290h86l-11 -67q52 78 114 78q58 0 58 -71q0 -48 -32.5 -151t-32.5 -143q0 -34 20 -34q38 0 103 171q5 0 16.5 -5t11.5 -9l-27.5 -69t-27.5 -60t-33.5 -54t-37 -32.5t-45.5 -14.5q-28 0 -48 23t-20 66q0 58 32.5 159t32.5 132
q0 20 -16 20q-14 0 -30 -16.5t-36.5 -61t-35.5 -110.5z" />
    <glyph glyph-name="o" unicode="o" horiz-adv-x="328" 
d="M328 239q5 0 16.5 -5t11.5 -9q-35 -90 -116 -119q-54 -116 -149 -116q-49 0 -74 45t-25 118q0 87 31 178l36 -9q9 62 41 103t83 41q48 0 75 -48t27 -119q0 -59 -25 -144q44 20 68 84zM161 401q-21 -4 -36.5 -45t-15.5 -90q0 -101 61 -119q37 89 37 176q0 79 -39 79
q-1 0 -3.5 -0.5t-3.5 -0.5zM112 67q17 5 37 38q-59 23 -83 104q-3 -23 -3 -43q0 -45 11 -72.5t30 -27.5q5 0 8 1z" />
    <glyph glyph-name="p" unicode="p" horiz-adv-x="341" 
d="M30 456h75l-8 -54q42 64 88 64q40 0 60 -37.5t20 -98.5q0 -74 -26.5 -158t-68.5 -138q60 14 99.5 66.5t71.5 138.5q5 0 16.5 -5t11.5 -9q-20 -52 -39 -89t-46.5 -73t-64 -54.5t-80.5 -18.5q-73 0 -101 57l-58 -346h-67v10q0 104 41 247q69 418 76 498zM70 241l-14 -85
q-1 -6 -1 -19q0 -62 35 -62q32 0 60 90t28 166q0 63 -22 63q-47 0 -86 -153zM-79 -247q0 2 2 12q-2 -10 -2 -12zM-83 -274l2 14q-2 -12 -2 -14z" />
    <glyph glyph-name="q" unicode="q" horiz-adv-x="361" 
d="M226 456h85q-52 -221 -85 -404q48 27 76.5 68t58.5 119q5 0 16.5 -5t11.5 -9q-31 -80 -66.5 -129.5t-96.5 -80.5q77 -59 77 -166q0 -62 -27.5 -107t-68.5 -45q-40 0 -63 28.5t-23 108.5q0 69 24 220q-39 -64 -92 -64q-69 0 -69 127q0 72 22.5 152.5t63.5 138.5t86 58
q49 0 57 -67q2 12 7 32t6 25zM161 394q-30 0 -61.5 -97t-31.5 -170q0 -52 21 -52q33 0 68 91.5t35 164.5q0 63 -31 63zM214 -253q17 0 28.5 28t11.5 68q0 81 -42 129q-18 -110 -18 -165q0 -60 20 -60z" />
    <glyph glyph-name="r" unicode="r" horiz-adv-x="240" 
d="M123 92q0 -21 16 -21q37 0 101 168q5 0 16.5 -4.5t11.5 -8.5v-1l-14 -37.5l-14.5 -38l-14 -34.5t-16 -33.5t-16 -27.5t-18 -25l-19.5 -17.5t-23.5 -13t-25.5 -3.5q-65 0 -65 75q0 34 23 98.5t23 88.5q0 36 -20 74l-40 -106q-28 5 -28 13v1q24 64 41 146q-18 40 -18 84
q0 49 23 124l75 -22q-6 -93 -28 -166q49 -50 62 -77q14 -26 14 -54q0 -36 -23 -102t-23 -80z" />
    <glyph glyph-name="s" unicode="s" horiz-adv-x="251" 
d="M-30 58l61 44q18 -30 44 -30q39 0 39 54q0 28 -6.5 56t-23 74.5t-21.5 62.5q-6 -19 -19.5 -53t-15.5 -41q-28 5 -28 13v1q7 19 25 62.5t26 64.5q-12 51 -12 96q0 63 23 133l68 -13q-12 -79 -30 -146q1 -37 51 -138.5t50 -161.5v-4q24 39 50 107q5 0 16.5 -5t11.5 -9
q-16 -41 -29.5 -71t-33 -63t-40 -53.5t-48.5 -34t-59 -13.5q-35 0 -61.5 18.5t-37.5 49.5z" />
    <glyph glyph-name="t" unicode="t" horiz-adv-x="182" 
d="M84 692h71q-7 -123 -32 -238q21 0 39 2l-9 -47q-4 -1 -41 -1q-15 -63 -31 -118q-15 -104 -15 -158q0 -64 20 -64q29 0 96 171q5 0 16.5 -5.5t11.5 -8.5q-49 -132 -79 -181t-76 -49q-62 0 -62 139q0 123 34 274q-40 0 -44 1l7 47q2 0 17.5 -0.5t27.5 -0.5q24 126 49 237z
" />
    <glyph glyph-name="u" unicode="u" horiz-adv-x="349" 
d="M46 456h85q-20 -83 -45 -211q-20 -102 -20 -143q0 -34 20 -34q13 0 32.5 41.5t34.5 104.5l6 33q12 65 46 209h85q-4 -19 -14 -63l-14 -62l-11.5 -52.5t-10.5 -53l-7 -43.5t-5.5 -44t-1.5 -36q0 -34 20 -34q38 0 103 171q5 0 16.5 -4.5t11.5 -8.5v-1l-14 -37.5l-14.5 -38
l-14 -34.5t-16 -33.5t-16 -27.5t-18 -25l-19.5 -17.5t-23.5 -13t-25.5 -3.5q-60 0 -70 82q-37 -82 -90 -82q-71 0 -71 115q0 52 16 137z" />
    <glyph glyph-name="v" unicode="v" horiz-adv-x="326" 
d="M90 94q29 43 52 90q-20 52 -20 120q0 86 29 153t76 67q31 0 50 -23.5t19 -64.5q0 -129 -90 -288q14 -7 28 -7q56 0 92 98q5 0 16.5 -5t11.5 -9q-41 -114 -126 -114q-22 0 -38 10q-44 -74 -94 -121h-54q-13 179 -15 225q-27 5 -27 14l23 60q-1 19 -1 55q0 64 5 102h71
q2 -8 2 -17q0 -33 -28 -106q7 -122 18 -239zM226 463q0 17 -11 17q-23 0 -40 -58.5t-17 -127.5q0 -30 5 -63q29 69 46 136t17 96z" />
    <glyph glyph-name="w" unicode="w" horiz-adv-x="500" 
d="M38 456h85q-56 -294 -56 -353q0 -35 12 -35q18 0 42 47t42 131q9 76 36 210h84q-49 -258 -49 -333q0 -56 21 -56q28 0 72 98q-24 51 -24 127q0 88 28 160t70 72q58 0 58 -88q0 -59 -20.5 -140t-53.5 -150q12 -5 23 -5q56 0 92 98q5 0 16.5 -5t11.5 -9q-41 -114 -126 -114
q-18 0 -31 6q-66 -122 -135 -122q-72 0 -79 119q-46 -119 -98 -119q-70 0 -70 126q0 86 49 335zM385 480q-16 0 -31.5 -63.5t-15.5 -132.5q0 -43 7 -74q55 148 55 250q0 20 -15 20z" />
    <glyph glyph-name="x" unicode="x" horiz-adv-x="389" 
d="M0 238v1q46 118 78.5 171.5t68.5 53.5q22 0 37.5 -13t24 -38t12 -51.5t5.5 -63.5q52 164 120 164q23 0 46 -17l-30 -76q-18 8 -31 8q-33 0 -56 -38t-48 -123q1 -75 9 -113.5t34 -38.5q53 0 119 175q5 0 16.5 -5t11.5 -9q-88 -232 -182 -232q-66 0 -80 119
q-54 -122 -107 -122q-57 0 -57 64q0 42 28 94l55 -23q-16 -32 -16 -53q0 -18 13 -18q31 0 79 127q-1 23 -1.5 60t-1 58.5t-2.5 44.5t-8 34t-15 11q-17 0 -37.5 -34t-56.5 -130q-28 5 -28 13z" />
    <glyph glyph-name="y" unicode="y" horiz-adv-x="312" 
d="M312 239q7 0 17.5 -4.5t10.5 -8.5v-1q-47 -121 -147 -225l-22 -129q-14 -80 -43.5 -127.5t-75.5 -47.5q-35 0 -56 20t-21 59q0 31 19 63.5t42 57.5t64 64q9 8 13 12l12 67q-31 -44 -69 -44q-71 0 -71 115q0 52 16 137l45 209h85q-20 -83 -45 -211q-20 -102 -20 -143
q0 -34 20 -34q14 0 28.5 30t27 81t22 98.5t19.5 103.5t14 75h82q-9 -34 -74 -389q73 84 107 172zM31 -224q0 -27 20 -27q21 0 31 51l20 107q-71 -74 -71 -131z" />
    <glyph glyph-name="z" unicode="z" horiz-adv-x="292" 
d="M4 -5l3 41q24 3 32 3q10 0 15 -1q32 40 60 141t28 164q0 44 -25 44q-7 0 -13.5 -3t-12.5 -11t-10.5 -15.5t-11.5 -24t-11.5 -29l-13.5 -37.5t-16 -42q-28 5 -28 13v1q9 25 22.5 66t21.5 63t21 46.5t29.5 35.5t38.5 11q50 0 74.5 -38.5t24.5 -101.5q0 -82 -35.5 -170
t-88.5 -131q15 -10 25 -20q111 113 159 239q6 0 17 -4t11 -8q-20 -52 -51 -102t-56 -80l-62 -71q21 -40 21 -92q0 -72 -37.5 -128t-99.5 -56q-28 0 -44.5 19t-16.5 49q0 49 27.5 90t80.5 94q-6 29 -18 46q-17 -5 -32 -5q-16 0 -28 4zM38 -261q22 0 37 44t15 100
q0 4 -0.5 11.5t-0.5 11.5q-70 -79 -70 -143q0 -24 19 -24z" />
    <glyph glyph-name="braceleft" unicode="{" horiz-adv-x="167" 
d="M43 305l12 69q29 0 49 -6q12 23 12 71q0 24 -4.5 80.5t-4.5 85.5q0 78 27 123t101 45q13 0 20 -4l-24 -76q-9 3 -17 3q-46 -1 -46 -83q0 -21 4 -74.5t4 -81.5q0 -93 -29 -123q5 -15 5 -29q0 -52 -48.5 -165.5t-48.5 -138.5t25 -25q8 0 19 3l9 -74q-6 -3 -25 -3
q-84 0 -84 87q0 44 24 103.5t48 112t24 81.5q0 9 -2 23q-19 -4 -50 -4z" />
    <glyph glyph-name="bar" unicode="|" horiz-adv-x="196" 
d="M138 721h53q-61 -359 -132 -721h-52l66 363.5z" />
    <glyph glyph-name="braceright" unicode="}" horiz-adv-x="195" 
d="M195 370l-12 -69q-29 0 -50 6q-11 -21 -11 -70q0 -24 4 -82t4 -87q0 -77 -27 -121.5t-100 -44.5q-13 0 -20 4l24 76q9 -3 17 -3q45 0 45 83q0 21 -3.5 74t-3.5 81q0 92 29 124q-5 10 -5 29q0 52 48.5 165.5t48.5 138.5t-25 25q-8 0 -19 -3l-9 74q6 3 25 3q84 0 84 -87
q0 -44 -24 -103.5t-48 -112t-24 -81.5q0 -17 1 -23q17 2 51 4z" />
    <glyph glyph-name="asciitilde" unicode="~" horiz-adv-x="390" 
d="M39 272l-59 67q45 59 150 59q31 0 87 -6t77 -6q66 0 103 34l71 -91q-45 -57 -124 -57q-35 0 -107 20.5t-105 20.5q-56 0 -93 -41z" />
    <glyph glyph-name="uni00A0" unicode="&#xa0;" horiz-adv-x="181" 
 />
    <glyph glyph-name="exclamdown" unicode="&#xa1;" horiz-adv-x="252" 
d="M3 24l92 -24q82 257 142 551l-56 9q-74 -283 -178 -536zM224 600q-23 0 -35 14.5t-12 36.5q0 29 19.5 54t50.5 25q23 0 35 -14.5t12 -37.5q0 -29 -19.5 -53.5t-50.5 -24.5z" />
    <glyph glyph-name="cent" unicode="&#xa2;" horiz-adv-x="230" 
d="M213 225l-66 30q14 30 14 55q0 28 -15 39q-23 -131 -47 -254q52 5 77 83l62 -27q-45 -121 -151 -121l-6 -30h-28l6 33q-46 10 -69.5 52.5t-23.5 100.5q0 85 45 156t119 74q4 29 7 40h28l-8 -43q36 -7 56 -36t20 -70q0 -39 -20 -82zM71 100l47 252q-33 -10 -57 -63.5
t-24 -107.5q0 -64 34 -81z" />
    <glyph glyph-name="sterling" unicode="&#xa3;" horiz-adv-x="340" 
d="M235 416q-14 0 -25.5 -8t-18.5 -25t-12 -32.5t-8.5 -41t-4.5 -39.5t-3 -39h61l-7 -40h-57q-8 -72 -52 -129q16 7 44 7q11 0 32.5 -1.5t31.5 -1.5q36 0 55 17l40 -60q-26 -28 -76 -28q-24 0 -68.5 12t-64.5 12q-33 0 -55 -25l-40 41q67 59 73 156h-42l7 40h38q4 50 12 88
t24.5 73.5t46 54.5t70.5 19q56 0 87.5 -32.5t31.5 -82.5q0 -58 -42 -115l-60 44q32 36 32 77q0 26 -14 42.5t-36 16.5z" />
    <glyph glyph-name="yen" unicode="&#xa5;" horiz-adv-x="271" 
d="M191 284h29l-7 -42h-43l-17 -33l-7 -35h56l-7 -42h-56l-25 -132h-78l24 132h-54l7 42h54q2 7 4.5 20.5t3.5 18.5l-5 29h-46l7 42h32l-31 172h82q30 -158 32 -172l88 172h45z" />
    <glyph glyph-name="brokenbar" unicode="&#xa6;" horiz-adv-x="186" 
d="M80 346h54l-65 -346h-52zM141 386h-55q10 56 31.5 166.5t31.5 168.5h52z" />
    <glyph glyph-name="section" unicode="&#xa7;" horiz-adv-x="357" 
d="M320 299l-81 28q13 22 13 44q0 16 -9 27.5t-25 11.5q-13 0 -22.5 -10.5t-9.5 -27.5q0 -25 14.5 -47.5t34.5 -42l40.5 -40t35 -48.5t14.5 -61q0 -56 -44 -97.5t-112 -41.5q-127 0 -141 137l84 12q6 -96 50 -96q35 0 35 41q0 21 -13.5 41t-32.5 38.5l-38.5 39t-33 50.5
t-13.5 64q0 60 37.5 102.5t104.5 42.5q55 0 87 -33t32 -85q1 -15 -7 -49zM278 121q0 27 -14 52t-33.5 45.5l-39.5 41t-34 48t-14 58.5t15 52q-19 -7 -32 -28t-13 -49q0 -40 21.5 -76.5t47 -60t47 -53.5t21.5 -58q0 -21 -7 -38q35 17 35 66z" />
    <glyph glyph-name="dieresis" unicode="&#xa8;" horiz-adv-x="238" 
d="M50 490q-36 0 -36 39q0 22 15 40.5t38 18.5q36 0 36 -39q0 -22 -15 -40.5t-38 -18.5zM163 490q-17 0 -26.5 11t-9.5 28q0 22 15 40.5t38 18.5q36 0 36 -39q0 -22 -15 -40.5t-38 -18.5z" />
    <glyph glyph-name="copyright" unicode="&#xa9;" horiz-adv-x="392" 
d="M272 401l-31 13q-22 -72 -60 -72q-45 0 -45 75q0 56 23.5 111.5t50.5 55.5q20 0 20 -31q0 -30 -22 -75l35 -12q20 40 20 79q0 31 -12.5 50t-37.5 19q-50 0 -84 -59.5t-34 -128.5q0 -50 20.5 -82t62.5 -32q27 0 53.5 24.5t40.5 64.5zM155 200q-72 0 -110.5 61t-38.5 151
q0 75 24.5 144t77.5 116.5t123 47.5q72 0 110.5 -61t38.5 -151q0 -75 -25 -144t-78 -116.5t-122 -47.5zM157 230q58 0 102 43t65 105t21 129q0 79 -30 131t-87 52q-58 0 -102 -43t-65 -105t-21 -129q0 -78 30.5 -130.5t86.5 -52.5z" />
    <glyph glyph-name="ordfeminine" unicode="&#xaa;" horiz-adv-x="342" 
d="M314 264l24 -17q-48 -99 -89 -99q-50 0 -50 98v11q-43 -114 -116 -114q-36 0 -54 33.5t-18 88.5q0 64 21 133t59.5 118.5t82.5 49.5q55 0 65 -67l11 58h71q-27 -120 -51 -289q-2 -11 -2 -26q0 -22 8 -22q13 2 31 32zM179 494q-29 0 -56 -75.5t-27 -138.5q0 -52 23 -52
q32 0 62.5 71.5t30.5 134.5q0 60 -33 60z" />
    <glyph glyph-name="guillemotleft" unicode="&#xab;" horiz-adv-x="408" 
d="M15 361l7 41q100 48 185 112l32 -53q-37 -24 -79 -45t-66 -30l-23 -9q30 -22 61 -48l48 -41l16 -16l-48 -51q-60 81 -133 140zM175 361l7 41q100 48 185 112l32 -53q-37 -24 -79 -45t-66 -30l-23 -9q30 -22 61 -48l48 -41l16 -16l-48 -51q-60 81 -133 140z" />
    <glyph glyph-name="registered" unicode="&#xae;" horiz-adv-x="379" 
d="M155 200q-72 0 -110.5 61t-38.5 151q0 75 24.5 144t77.5 116.5t123 47.5q72 0 110.5 -61t38.5 -151q0 -75 -25 -144t-78 -116.5t-122 -47.5zM157 230q58 0 102 43t65 105t21 129q0 79 -30 131t-87 52q-58 0 -102 -43t-65 -105t-21 -129q0 -78 30.5 -130.5t86.5 -52.5z
M100 321h36l17 95q9 -10 25.5 -36.5t31 -44.5t27.5 -22l25 33q-13 5 -38.5 35.5t-40.5 41.5q44 14 71 49t27 72q0 30 -19 49.5t-57 19.5q-49 0 -87 -38l18 -23l11 9q-18 -103 -47 -240zM206 585q38 0 38 -41q0 -31 -24 -63.5t-62 -43.5l26 144q16 4 22 4z" />
    <glyph glyph-name="macron" unicode="&#xaf;" horiz-adv-x="203" 
d="M26 551h159l-9 -52h-159z" />
    <glyph glyph-name="degree" unicode="&#xb0;" horiz-adv-x="152" 
d="M84 510q-17 0 -28 -14.5t-11 -30.5q0 -26 24 -26q17 0 27.5 14t10.5 31q0 26 -23 26zM88 540q28 0 42.5 -15.5t14.5 -38.5q0 -29 -22 -53t-57 -24q-28 0 -42.5 15t-14.5 38q0 30 22 54t57 24z" />
    <glyph glyph-name="twosuperior" unicode="&#xb2;" horiz-adv-x="232" 
d="M48 450l-32 29q12 30 39.5 54.5t53.5 38.5t46 35.5t20 46.5q0 14 -8 23t-22 9q-16 0 -25.5 -11t-9.5 -28q0 -12 6 -27l-51 -15q-4 13 -4 31q0 38 22 64t69 26q33 0 52 -18.5t19 -52.5q0 -37 -21.5 -62t-62 -52.5t-59.5 -46.5q11 2 33.5 1.5t40 4t32.5 17.5l22 -47
q-18 -19 -48 -19q-14 0 -39 9t-37 9q-21 0 -36 -19z" />
    <glyph glyph-name="threesuperior" unicode="&#xb3;" horiz-adv-x="206" 
d="M91 577l3 36h1q15 0 27 -3q19 19 19 46q0 30 -24 30q-11 0 -18.5 -8.5t-7.5 -20.5q0 -6 1 -8l-51 -10q-1 4 -1 12q0 34 20.5 54.5t56.5 20.5q37 0 56.5 -17t19.5 -44q0 -42 -38 -69q33 -24 33 -64q0 -33 -24.5 -57t-67.5 -24q-38 0 -60 19t-22 52q0 13 5 33l48 -15
q-5 -13 -5 -23q0 -16 9.5 -26t25.5 -10q18 0 28 16t10 39q0 27 -12 45q-13 -4 -30 -4h-2z" />
    <glyph glyph-name="acute" unicode="&#xb4;" horiz-adv-x="188" 
d="M110 645l62 -43q-22 -36 -49.5 -65.5t-44.5 -41.5l-16 -12l-36 32q49 54 84 130z" />
    <glyph glyph-name="paragraph" unicode="&#xb6;" horiz-adv-x="554" 
d="M391 714q-26 -232 -60 -435q140 42 140 275l86 10q0 -4 0.5 -14t0.5 -14q0 -124 -59.5 -209t-176.5 -103q-23 -125 -44 -224h-54q36 177 43 220h-4q-22 0 -32 1q-11 -61 -43 -221h-54q29 147 44 229q-93 21 -143 84t-50 142q0 107 86 188t237 81q47 0 83 -10zM245 671
q-83 -17 -130 -79t-47 -137q0 -59 30.5 -107t88.5 -67q30 171 58 390zM240 271q7 -1 22 -1h14q37 207 61 405q-12 2 -34 2h-5q-29 -238 -58 -406z" />
    <glyph glyph-name="periodcentered" unicode="&#xb7;" horiz-adv-x="105" 
d="M94 290q-23 0 -35 14.5t-12 36.5q0 29 19.5 54t50.5 25q23 0 35 -14.5t12 -37.5q0 -29 -19.5 -53.5t-50.5 -24.5z" />
    <glyph glyph-name="cedilla" unicode="&#xb8;" horiz-adv-x="414" 
d="M162 -104l-15 21q24 24 34 87l30 -5q-4 -37 -13 -58q7 1 20 1q37 0 56.5 -19t19.5 -46q0 -32 -25.5 -57t-67.5 -25q-33 0 -57.5 16.5t-30.5 37.5l45 23q12 -36 48 -36q19 0 31 13t12 30q0 15 -10 25.5t-29 10.5q-12 0 -19 -1.5t-17 -9t-12 -8.5z" />
    <glyph glyph-name="onesuperior" unicode="&#xb9;" horiz-adv-x="127" 
d="M32 626l-27 25q19 14 36.5 31.5t24.5 27.5l8 11h48q-1 -4 -7 -26.5t-18 -83.5t-27 -155h-48q28 162 41 214q-11 -21 -31 -44z" />
    <glyph glyph-name="ordmasculine" unicode="&#xba;" horiz-adv-x="395" 
d="M359 381l23 -22q-35 -49 -79 -68q-23 -62 -65.5 -101.5t-96.5 -39.5q-56 0 -85 39t-29 105q0 61 26 137l44 -10q-1 5 -1 14q0 54 31 92.5t86 38.5q56 0 84.5 -43.5t28.5 -110.5q0 -34 -8 -72q22 12 41 41zM196 504q-20 0 -33 -24t-13 -56q0 -37 19.5 -65.5t59.5 -33.5
q14 48 14 94q0 85 -47 85zM108 370q-8 -32 -8 -64q0 -39 13.5 -60t35.5 -21q35 0 62 55q-74 14 -103 90z" />
    <glyph glyph-name="guillemotright" unicode="&#xbb;" horiz-adv-x="371" 
d="M234 374l-7 -41q-100 -48 -185 -112l-32 53q37 24 79 45t65 30l24 9q-30 22 -61 48t-47 42l-17 15l48 51q60 -81 133 -140zM364 374l-7 -41q-100 -48 -185 -112l-32 53q37 24 79 45t65 30l24 9q-30 22 -61 48t-47 42l-17 15l48 51q60 -81 133 -140z" />
    <glyph glyph-name="onequarter" unicode="&#xbc;" horiz-adv-x="395" 
d="M363 0h-113l5 31h33q1 10 3.5 26.5t3.5 21.5q-41 9 -48 9q-18 0 -27 -12l-29 19q59 76 59 178h48q-2 -79 -49 -159q4 1 13 1q7 0 19.5 -2t17.5 -2q9 55 29 162h47q-1 -3 -3.5 -14.5t-9 -47t-16.5 -99.5q15 4 26 17l22 -33q-15 -17 -53 -20l-7 -45h34zM32 361l-27 25
q19 14 36.5 31.5t24.5 28.5l8 10h48q-1 -4 -7 -26.5t-18 -83.5t-27 -155h-48q28 162 41 214q-11 -21 -31 -44zM256 469l41 -16l-224 -456l-40 15z" />
    <glyph glyph-name="onehalf" unicode="&#xbd;" horiz-adv-x="401" 
d="M218 -6l-32 29q12 30 39.5 54.5t53.5 38.5t46 35.5t20 46.5q0 14 -8 23t-22 9q-16 0 -25.5 -11t-9.5 -28q0 -12 6 -27l-51 -15q-4 13 -4 31q0 38 22 64t69 26q33 0 52 -18.5t19 -52.5q0 -37 -21.5 -62t-62 -52.5t-59.5 -46.5q11 2 33.5 1.5t40 4t32.5 17.5l22 -47
q-18 -19 -48 -19q-14 0 -39 9t-37 9q-21 0 -36 -19zM35 361l-27 25q19 14 36.5 31.5t25.5 28.5l7 10h48q-1 -4 -7 -26.5t-18 -83.5t-27 -155h-48q28 162 41 214q-11 -21 -31 -44zM256 469l41 -16l-224 -456l-40 15z" />
    <glyph glyph-name="threequarters" unicode="&#xbe;" horiz-adv-x="388" 
d="M276 121l3 36h1q15 0 27 -3q19 19 19 46q0 30 -24 30q-11 0 -18.5 -8.5t-7.5 -20.5q0 -6 1 -8l-51 -10q-1 4 -1 12q0 34 20.5 54.5t56.5 20.5q37 0 56.5 -17t19.5 -44q0 -42 -38 -69q33 -24 33 -64q0 -33 -24.5 -57t-67.5 -24q-38 0 -60 19t-22 52q0 13 5 33l48 -15
q-5 -13 -5 -23q0 -16 9.5 -26t25.5 -10q18 0 28 16t10 39q0 27 -12 45q-13 -4 -30 -4h-2zM256 469l41 -16l-224 -456l-40 15zM34 361l-27 25q19 14 36.5 31.5t24.5 28.5l8 10h48q-1 -4 -7 -26.5t-18 -83.5t-27 -155h-48q28 162 41 214q-11 -21 -31 -44z" />
    <glyph glyph-name="questiondown" unicode="&#xbf;" horiz-adv-x="355" 
d="M278 541l-70 10q-8 -55 -32.5 -102.5t-52.5 -80.5l-55 -66t-45 -74.5t-18 -89.5q0 -69 45 -108.5t118 -39.5q80 0 127 55t47 128q0 93 -70 138l-62 -66q42 -36 42 -93q0 -43 -24 -75.5t-57 -32.5q-35 0 -53 23.5t-18 65.5q0 38 15.5 75.5t39 71l48.5 69.5t46 86t29 106z
M261 600q-23 0 -35 14.5t-12 36.5q0 29 19.5 54t50.5 25q23 0 35 -14.5t12 -37.5q0 -29 -19.5 -53.5t-50.5 -24.5z" />
    <glyph glyph-name="Agrave" unicode="&#xc0;" 
d="M1039 1022l62 43q35 -76 84 -130l-36 -32q-7 4 -18.5 13t-40.5 39.5t-51 66.5zM694 407q91 -6 170 -44l35.5 91l38 96l34 81t39 84l37.5 65t44 63t44 41l69 -31q-110 -573 -110 -860q0 -349 154 -349q77 0 114 93l85 -30q-56 -141 -186 -141q-142 0 -204.5 109t-62.5 313
q0 25 2 77q-4 129 -93 204q-33 -87 -65 -154t-78 -136.5t-96.5 -114t-119.5 -73t-148 -28.5q-89 0 -160.5 31.5t-115 85.5t-66 121t-22.5 141q0 81 26.5 157t75 137.5t126.5 99t173 37.5q103 0 168.5 -45.5t91.5 -120.5zM279 156q24 103 114.5 168t210.5 79
q-20 55 -64.5 88.5t-110.5 33.5q-93 0 -164.5 -59t-106 -146.5t-34.5 -183.5q0 -64 17 -121t49.5 -103t87 -72.5t123.5 -26.5q62 0 118.5 28t99 71.5t85 112.5t73 133t65.5 151q-59 27 -134 32q1 -9 1 -26q0 -92 -52 -171t-142 -107l-34 81q65 20 100.5 77.5t35.5 125.5v14
q-93 -16 -162.5 -70t-88.5 -136zM1107 785h-1q-24 -40 -49.5 -98.5t-42.5 -105.5l-46 -130.5l-44 -126.5q55 -43 85 -107q23 220 98 568z" />
    <glyph glyph-name="Aacute" unicode="&#xc1;" 
d="M1232 1075l62 -43q-22 -36 -49.5 -65.5t-44.5 -41.5l-16 -12l-36 32q49 54 84 130zM694 407q91 -6 170 -44l35.5 91l38 96l34 81t39 84l37.5 65t44 63t44 41l69 -31q-110 -573 -110 -860q0 -349 154 -349q77 0 114 93l85 -30q-56 -141 -186 -141q-142 0 -204.5 109
t-62.5 313q0 25 2 77q-4 129 -93 204q-33 -87 -65 -154t-78 -136.5t-96.5 -114t-119.5 -73t-148 -28.5q-89 0 -160.5 31.5t-115 85.5t-66 121t-22.5 141q0 81 26.5 157t75 137.5t126.5 99t173 37.5q103 0 168.5 -45.5t91.5 -120.5zM279 156q24 103 114.5 168t210.5 79
q-20 55 -64.5 88.5t-110.5 33.5q-93 0 -164.5 -59t-106 -146.5t-34.5 -183.5q0 -64 17 -121t49.5 -103t87 -72.5t123.5 -26.5q62 0 118.5 28t99 71.5t85 112.5t73 133t65.5 151q-59 27 -134 32q1 -9 1 -26q0 -92 -52 -171t-142 -107l-34 81q65 20 100.5 77.5t35.5 125.5v14
q-93 -16 -162.5 -70t-88.5 -136zM1107 785h-1q-24 -40 -49.5 -98.5t-42.5 -105.5l-46 -130.5l-44 -126.5q55 -43 85 -107q23 220 98 568z" />
    <glyph glyph-name="Acircumflex" unicode="&#xc2;" 
d="M1163 1051l41 -5q18 -28 34.5 -59t23.5 -48l7 -17l-61 -29q-6 39 -37 104q-34 -54 -84 -93l-40 46q38 28 67 53t39 37zM694 407q91 -6 170 -44l35.5 91l38 96l34 81t39 84l37.5 65t44 63t44 41l69 -31q-110 -573 -110 -860q0 -349 154 -349q77 0 114 93l85 -30
q-56 -141 -186 -141q-142 0 -204.5 109t-62.5 313q0 25 2 77q-4 129 -93 204q-33 -87 -65 -154t-78 -136.5t-96.5 -114t-119.5 -73t-148 -28.5q-89 0 -160.5 31.5t-115 85.5t-66 121t-22.5 141q0 81 26.5 157t75 137.5t126.5 99t173 37.5q103 0 168.5 -45.5t91.5 -120.5z
M279 156q24 103 114.5 168t210.5 79q-20 55 -64.5 88.5t-110.5 33.5q-93 0 -164.5 -59t-106 -146.5t-34.5 -183.5q0 -64 17 -121t49.5 -103t87 -72.5t123.5 -26.5q62 0 118.5 28t99 71.5t85 112.5t73 133t65.5 151q-59 27 -134 32q1 -9 1 -26q0 -92 -52 -171t-142 -107
l-34 81q65 20 100.5 77.5t35.5 125.5v14q-93 -16 -162.5 -70t-88.5 -136zM1107 785h-1q-24 -40 -49.5 -98.5t-42.5 -105.5l-46 -130.5l-44 -126.5q55 -43 85 -107q23 220 98 568z" />
    <glyph glyph-name="Atilde" unicode="&#xc3;" 
d="M1083 912l-29 33q23 29 74 29q15 0 43 -3t38 -3q32 0 51 17l35 -45q-21 -28 -61 -28q-18 0 -53.5 10t-51.5 10q-27 0 -46 -20zM694 407q91 -6 170 -44l35.5 91l38 96l34 81t39 84l37.5 65t44 63t44 41l69 -31q-110 -573 -110 -860q0 -349 154 -349q77 0 114 93l85 -30
q-56 -141 -186 -141q-142 0 -204.5 109t-62.5 313q0 25 2 77q-4 129 -93 204q-33 -87 -65 -154t-78 -136.5t-96.5 -114t-119.5 -73t-148 -28.5q-89 0 -160.5 31.5t-115 85.5t-66 121t-22.5 141q0 81 26.5 157t75 137.5t126.5 99t173 37.5q103 0 168.5 -45.5t91.5 -120.5z
M279 156q24 103 114.5 168t210.5 79q-20 55 -64.5 88.5t-110.5 33.5q-93 0 -164.5 -59t-106 -146.5t-34.5 -183.5q0 -64 17 -121t49.5 -103t87 -72.5t123.5 -26.5q62 0 118.5 28t99 71.5t85 112.5t73 133t65.5 151q-59 27 -134 32q1 -9 1 -26q0 -92 -52 -171t-142 -107
l-34 81q65 20 100.5 77.5t35.5 125.5v14q-93 -16 -162.5 -70t-88.5 -136zM1107 785h-1q-24 -40 -49.5 -98.5t-42.5 -105.5l-46 -130.5l-44 -126.5q55 -43 85 -107q23 220 98 568z" />
    <glyph glyph-name="Adieresis" unicode="&#xc4;" 
d="M1090 920q-36 0 -36 39q0 22 15 40.5t38 18.5q36 0 36 -39q0 -22 -15 -40.5t-38 -18.5zM1203 920q-17 0 -26.5 11t-9.5 28q0 22 15 40.5t38 18.5q36 0 36 -39q0 -22 -15 -40.5t-38 -18.5zM694 407q91 -6 170 -44l35.5 91l38 96l34 81t39 84l37.5 65t44 63t44 41l69 -31
q-110 -573 -110 -860q0 -349 154 -349q77 0 114 93l85 -30q-56 -141 -186 -141q-142 0 -204.5 109t-62.5 313q0 25 2 77q-4 129 -93 204q-33 -87 -65 -154t-78 -136.5t-96.5 -114t-119.5 -73t-148 -28.5q-89 0 -160.5 31.5t-115 85.5t-66 121t-22.5 141q0 81 26.5 157
t75 137.5t126.5 99t173 37.5q103 0 168.5 -45.5t91.5 -120.5zM279 156q24 103 114.5 168t210.5 79q-20 55 -64.5 88.5t-110.5 33.5q-93 0 -164.5 -59t-106 -146.5t-34.5 -183.5q0 -64 17 -121t49.5 -103t87 -72.5t123.5 -26.5q62 0 118.5 28t99 71.5t85 112.5t73 133
t65.5 151q-59 27 -134 32q1 -9 1 -26q0 -92 -52 -171t-142 -107l-34 81q65 20 100.5 77.5t35.5 125.5v14q-93 -16 -162.5 -70t-88.5 -136zM1107 785h-1q-24 -40 -49.5 -98.5t-42.5 -105.5l-46 -130.5l-44 -126.5q55 -43 85 -107q23 220 98 568z" />
    <glyph glyph-name="Aring" unicode="&#xc5;" 
d="M1199 1005q37 0 57 -20t20 -48q0 -29 -19 -54t-53 -34q-109 -566 -109 -857q0 -348 154 -348q77 0 114 93l85 -30q-56 -141 -186 -141q-142 0 -204.5 109t-62.5 313q0 25 2 77q-4 129 -93 204q-33 -87 -65 -154t-78 -136.5t-96.5 -114t-119.5 -73t-148 -28.5
q-89 0 -160.5 31.5t-115 85.5t-66 121t-22.5 141q0 81 26.5 157t75 137.5t126.5 99t173 37.5q103 0 168.5 -45.5t91.5 -120.5q91 -6 170 -44l33.5 85.5l35.5 89.5l32 78t36.5 80l34.5 64t39.5 62.5t40.5 44.5q-17 17 -17 46q0 35 27.5 63.5t72.5 28.5zM279 156
q24 103 114.5 168t210.5 79q-20 55 -64.5 88.5t-110.5 33.5q-93 0 -164.5 -59t-106 -146.5t-34.5 -183.5q0 -64 17 -121t49.5 -103t87 -72.5t123.5 -26.5q62 0 118.5 28t99 71.5t85 112.5t73 133t65.5 151q-59 27 -134 32q1 -9 1 -26q0 -92 -52 -171t-142 -107l-34 81
q65 20 100.5 77.5t35.5 125.5v14q-93 -16 -162.5 -70t-88.5 -136zM1107 785h-1q-24 -40 -49.5 -98.5t-42.5 -105.5l-46 -130.5l-44 -126.5q55 -43 85 -107q23 220 98 568zM1196 975q-27 0 -43 -18.5t-16 -41.5q0 -17 10.5 -28.5t30.5 -11.5q26 0 42.5 18.5t16.5 41.5
q0 17 -10.5 28.5t-30.5 11.5z" />
    <glyph glyph-name="AE" unicode="&#xc6;" horiz-adv-x="1757" 
d="M731 426l25 73q60 -25 125 -39q46 116 74 180.5t72.5 137.5t88.5 106l69 -31q-42 -220 -70 -410q128 9 235 47q-18 56 -18 118q0 73 23.5 136t73 104.5t115.5 41.5q70 0 108 -42.5t38 -103.5q0 -88 -63.5 -159t-172.5 -120q15 -40 38 -64q40 5 78 5h10l-10 -82h-6
q-61 0 -109 28q-111 -33 -173 -124.5t-62 -194.5q0 -94 52 -157.5t148 -63.5q54 0 97 22.5t68.5 59t38.5 78t13 84.5q0 58 -23 97t-63 39q-36 0 -60 -32.5t-24 -79.5q0 -46 23 -86l-92 -45q-27 53 -27 108q0 81 50.5 138t134.5 57q82 0 126.5 -54.5t44.5 -135.5
q0 -53 -20 -105t-58 -96.5t-99 -71.5t-136 -27q-139 0 -214 76.5t-75 189.5t76 214t212 142q-23 23 -38 50q-126 -41 -269 -50q-31 -237 -31 -390q0 -350 154 -350q77 0 114 93l85 -30q-56 -141 -186 -141q-142 0 -205 109t-63 314q0 160 37 393q-29 0 -85 4l-47.5 -130.5
t-52 -124.5t-62 -118t-72.5 -99t-87.5 -81.5t-103.5 -50t-124 -19.5q-89 0 -160.5 31.5t-115 85.5t-66 121t-22.5 141q0 81 26.5 157t75 137.5t126.5 99t173 37.5q134 0 204.5 -75t70.5 -182q0 -93 -52 -171.5t-142 -107.5l-34 81q65 21 101 78.5t36 127.5q0 82 -49.5 141.5
t-139.5 59.5q-93 0 -164.5 -59t-106 -146.5t-34.5 -183.5q0 -64 17 -121t49.5 -103t87 -72.5t123.5 -26.5q50 0 96 18.5t82.5 46t73.5 75.5t63.5 91.5t58 111t52 116t49.5 123.5q-80 15 -125 31zM1611 747q0 88 -71 88q-53 0 -82.5 -64t-29.5 -154q0 -43 8 -89
q82 43 128.5 99.5t46.5 119.5zM1087 785h-1q-52 -86 -139 -337q38 -5 74 -6q22 135 66 343z" />
    <glyph glyph-name="Ccedilla" unicode="&#xc7;" horiz-adv-x="932" 
d="M612 -279q5 1 16 1q37 0 56.5 -19t19.5 -46q0 -32 -25.5 -57t-67.5 -25q-33 0 -57.5 16.5t-30.5 37.5l45 23q12 -36 48 -36q19 0 31 13t12 30q0 15 -10 25.5t-29 10.5q-11 0 -18 -2t-17.5 -9t-12.5 -8l-15 21q22 22 31 70q-95 18 -146.5 113.5t-58.5 238.5
q-171 0 -269 88.5t-98 216.5q0 123 77 198.5t182 75.5q56 0 113 -26l-42 -78q-34 17 -73 17q-70 0 -121.5 -54t-51.5 -140q0 -108 73.5 -177.5t208.5 -70.5q1 123 31.5 249.5t84 232t135 172.5t173.5 67q86 0 131 -57.5t45 -150.5q0 -81 -34 -169.5t-95.5 -169.5t-161 -141
t-216.5 -77q0 -275 120 -307q2 17 5.5 59t6 64.5t8.5 60.5t13.5 59.5t21.5 48.5t31 41.5t42.5 25t57.5 10.5q61 0 94 -43t33 -109q0 -64 -29.5 -124.5t-95.5 -104t-155 -43.5q-7 -23 -16 -42zM806 840q-81 0 -155.5 -105t-119 -255.5t-54.5 -301.5q99 19 181.5 78t132 136
t76 157t26.5 150q0 64 -22.5 102.5t-64.5 38.5zM773 137q-18 0 -32.5 -8t-26 -27t-19.5 -37t-16 -52t-13 -58t-13.5 -69.5l-13.5 -71.5q87 6 140.5 81.5t53.5 154.5q0 39 -15.5 63t-44.5 24z" />
    <glyph glyph-name="Egrave" unicode="&#xc8;" horiz-adv-x="786" 
d="M581 355l10 82h-10q-42 0 -78 -6q-16 17 -27 43q119 32 184 109t65 158q0 63 -39.5 104t-110.5 41q-68 0 -120 -41.5t-77 -104t-25 -133.5q0 -53 15 -100q-30 -2 -46 -2q-114 0 -172 45.5t-58 104.5q0 36 23 61.5t61 25.5q61 0 92 -66l69 52q-54 95 -161 95
q-72 0 -117.5 -49t-45.5 -115q0 -83 77.5 -143.5t231.5 -60.5q35 0 68 3q13 -23 34 -44q-136 -43 -212 -148.5t-76 -224.5q0 -118 75 -198t214 -80q75 0 136 27t99 71.5t58 96.5t20 105q0 81 -44.5 135.5t-126.5 54.5q-84 0 -134.5 -57t-50.5 -138q0 -56 27 -108l92 45
q-23 40 -23 86q0 47 24 79.5t60 32.5q40 0 63 -39t23 -97q0 -43 -13 -84.5t-38.5 -78t-68.5 -59t-97 -22.5q-92 0 -143.5 68t-51.5 167q0 108 60.5 203.5t169.5 130.5q48 -27 109 -27h6zM571 836q29 0 45.5 -24.5t16.5 -62.5q0 -64 -44.5 -127.5t-130.5 -94.5q-9 40 -9 86
q0 90 32.5 156.5t89.5 66.5zM449 1022l62 43q35 -76 84 -130l-36 -32q-7 4 -18.5 13t-40.5 39.5t-51 66.5z" />
    <glyph glyph-name="Eacute" unicode="&#xc9;" horiz-adv-x="786" 
d="M591 437l-10 -82h-6q-61 0 -109 27q-109 -35 -169.5 -130.5t-60.5 -203.5q0 -99 51.5 -167t143.5 -68q54 0 97 22.5t68.5 59t38.5 78t13 84.5q0 58 -23 97t-63 39q-36 0 -60 -32.5t-24 -79.5q0 -46 23 -86l-92 -45q-27 52 -27 108q0 81 50.5 138t134.5 57
q82 0 126.5 -54.5t44.5 -135.5q0 -53 -20 -105t-58 -96.5t-99 -71.5t-136 -27q-139 0 -214 80t-75 198q0 119 76 224.5t212 148.5q-21 21 -34 44q-33 -3 -68 -3q-154 0 -231.5 60.5t-77.5 143.5q0 66 45.5 115t117.5 49q107 0 161 -95l-69 -52q-31 66 -92 66
q-38 0 -61 -25.5t-23 -61.5q0 -59 58 -104.5t172 -45.5q16 0 46 2q-15 47 -15 100q0 71 25 133.5t77 104t120 41.5q71 0 110.5 -41t39.5 -104q0 -81 -65 -158t-184 -109q11 -26 27 -43q36 6 78 6h10zM571 836q-57 0 -89.5 -66.5t-32.5 -156.5q0 -45 9 -86q86 31 130.5 94.5
t44.5 127.5q0 38 -16.5 62.5t-45.5 24.5zM633 1085l62 -43q-22 -36 -49.5 -65.5t-43.5 -41.5l-17 -12l-36 32q49 54 84 130z" />
    <glyph glyph-name="Ecircumflex" unicode="&#xca;" horiz-adv-x="786" 
d="M591 437l-10 -82h-6q-61 0 -109 27q-109 -35 -169.5 -130.5t-60.5 -203.5q0 -99 51.5 -167t143.5 -68q54 0 97 22.5t68.5 59t38.5 78t13 84.5q0 58 -23 97t-63 39q-36 0 -60 -32.5t-24 -79.5q0 -46 23 -86l-92 -45q-27 52 -27 108q0 81 50.5 138t134.5 57
q82 0 126.5 -54.5t44.5 -135.5q0 -53 -20 -105t-58 -96.5t-99 -71.5t-136 -27q-139 0 -214 80t-75 198q0 119 76 224.5t212 148.5q-21 21 -34 44q-33 -3 -68 -3q-154 0 -231.5 60.5t-77.5 143.5q0 66 45.5 115t117.5 49q107 0 161 -95l-69 -52q-31 66 -92 66
q-38 0 -61 -25.5t-23 -61.5q0 -59 58 -104.5t172 -45.5q16 0 46 2q-15 47 -15 100q0 71 25 133.5t77 104t120 41.5q71 0 110.5 -41t39.5 -104q0 -81 -65 -158t-184 -109q11 -26 27 -43q36 6 78 6h10zM571 836q-57 0 -89.5 -66.5t-32.5 -156.5q0 -45 9 -86q86 31 130.5 94.5
t44.5 127.5q0 38 -16.5 62.5t-45.5 24.5zM595 1091l41 -5q18 -28 34.5 -59t23.5 -48l7 -17l-61 -29q-6 39 -37 104q-34 -54 -84 -93l-40 46q38 28 67 53t39 37z" />
    <glyph glyph-name="Edieresis" unicode="&#xcb;" horiz-adv-x="791" 
d="M581 355l10 82h-10q-42 0 -78 -6q-16 17 -27 43q119 32 184 109t65 158q0 63 -39.5 104t-110.5 41q-68 0 -120 -41.5t-77 -104t-25 -133.5q0 -53 15 -100q-30 -2 -46 -2q-114 0 -172 45.5t-58 104.5q0 36 23 61.5t61 25.5q61 0 92 -66l69 52q-54 95 -161 95
q-72 0 -117.5 -49t-45.5 -115q0 -83 77.5 -143.5t231.5 -60.5q35 0 68 3q13 -23 34 -44q-136 -43 -212 -148.5t-76 -224.5q0 -118 75 -198t214 -80q75 0 136 27t99 71.5t58 96.5t20 105q0 81 -44.5 135.5t-126.5 54.5q-84 0 -134.5 -57t-50.5 -138q0 -56 27 -108l92 45
q-23 40 -23 86q0 47 24 79.5t60 32.5q40 0 63 -39t23 -97q0 -43 -13 -84.5t-38.5 -78t-68.5 -59t-97 -22.5q-92 0 -143.5 68t-51.5 167q0 108 60.5 203.5t169.5 130.5q48 -27 109 -27h6zM571 836q29 0 45.5 -24.5t16.5 -62.5q0 -64 -44.5 -127.5t-130.5 -94.5q-9 40 -9 86
q0 90 32.5 156.5t89.5 66.5zM518 920q-36 0 -36 39q0 22 15 40.5t38 18.5q36 0 36 -39q0 -22 -15 -40.5t-38 -18.5zM631 920q-17 0 -26.5 11t-9.5 28q0 22 15 40.5t38 18.5q36 0 36 -39q0 -22 -15 -40.5t-38 -18.5z" />
    <glyph glyph-name="Igrave" unicode="&#xcc;" horiz-adv-x="539" 
d="M605 875l-109 7q-12 -45 -38 -156q-45 -32 -124 -72l-141.5 -73.5t-124 -77.5t-96.5 -102.5t-35 -128.5q0 -84 61 -140.5t148 -56.5q86 0 136 51t50 120q0 49 -27 91t-80 65l-41 -68q53 -26 53 -80q0 -36 -25.5 -62.5t-66.5 -26.5q-50 0 -82.5 34.5t-32.5 90.5
q0 48 25 90.5t72.5 78.5t95 65l113.5 67.5t108 68.5l-32.5 -159.5t-31 -176.5l-25.5 -161.5l-29 -194.5l-29 -195h98l35 263t36.5 268t33.5 210.5t46 240.5q45 56 59 120zM423 1022l62 43q35 -76 84 -130l-36 -32q-7 4 -18.5 13t-40.5 39.5t-51 66.5z" />
    <glyph glyph-name="Iacute" unicode="&#xcd;" horiz-adv-x="569" 
d="M522 882l109 -7q-14 -64 -59 -120q-24 -110 -46 -240.5t-33.5 -210.5t-36.5 -268l-35 -263h-98l29 195l29 194.5l25.5 161.5t31 176.5l32.5 159.5q-42 -30 -108 -68.5l-113.5 -67.5t-95 -65t-72.5 -78.5t-25 -90.5q0 -56 32.5 -90.5t82.5 -34.5q41 0 66.5 26.5t25.5 62.5
q0 54 -53 80l41 68q53 -23 80 -65t27 -91q0 -69 -50 -120t-136 -51q-87 0 -148 56.5t-61 140.5q0 70 35 128.5t96.5 102.5t124 77.5l141.5 73.5t124 72q26 111 38 156zM636 1065l62 -43q-22 -36 -49.5 -65.5t-44.5 -41.5l-16 -12l-36 32q49 54 84 130z" />
    <glyph glyph-name="Icircumflex" unicode="&#xce;" horiz-adv-x="568" 
d="M522 882l109 -7q-14 -64 -59 -120q-24 -110 -46 -240.5t-33.5 -210.5t-36.5 -268l-35 -263h-98l29 195l29 194.5l25.5 161.5t31 176.5l32.5 159.5q-42 -30 -108 -68.5l-113.5 -67.5t-95 -65t-72.5 -78.5t-25 -90.5q0 -56 32.5 -90.5t82.5 -34.5q41 0 66.5 26.5t25.5 62.5
q0 54 -53 80l41 68q53 -23 80 -65t27 -91q0 -69 -50 -120t-136 -51q-87 0 -148 56.5t-61 140.5q0 70 35 128.5t96.5 102.5t124 77.5l141.5 73.5t124 72q26 111 38 156zM578 1051l41 -5q18 -28 34.5 -59t23.5 -48l7 -17l-61 -29q-6 39 -37 104q-34 -54 -84 -93l-40 46
q38 28 67 53t39 37z" />
    <glyph glyph-name="Idieresis" unicode="&#xcf;" horiz-adv-x="560" 
d="M631 875l-109 7q-12 -45 -38 -156q-45 -32 -124 -72l-141.5 -73.5t-124 -77.5t-96.5 -102.5t-35 -128.5q0 -84 61 -140.5t148 -56.5q86 0 136 51t50 120q0 49 -27 91t-80 65l-41 -68q53 -26 53 -80q0 -36 -25.5 -62.5t-66.5 -26.5q-50 0 -82.5 34.5t-32.5 90.5
q0 48 25 90.5t72.5 78.5t95 65l113.5 67.5t108 68.5l-32.5 -159.5t-31 -176.5l-25.5 -161.5l-29 -194.5l-29 -195h98l35 263t36.5 268t33.5 210.5t46 240.5q45 56 59 120zM524 920q-36 0 -36 39q0 22 15 40.5t38 18.5q36 0 36 -39q0 -22 -15 -40.5t-38 -18.5zM637 920
q-17 0 -26.5 11t-9.5 28q0 22 15 40.5t38 18.5q36 0 36 -39q0 -22 -15 -40.5t-38 -18.5z" />
    <glyph glyph-name="Eth" unicode="&#xd0;" horiz-adv-x="898" 
d="M183 33h279l-9 -52h-279zM76 -92q46 0 129 -35q63 61 105 245q-135 18 -207.5 118t-72.5 235q0 102 36 185t96.5 134.5t135 79.5t155.5 28q91 0 170.5 -31t142.5 -91t99 -159.5t36 -226.5q0 -112 -31.5 -222t-87 -199.5t-140.5 -145t-184 -55.5q-140 0 -247 42
q-72 -47 -160 -47zM458 -182q79 0 144 48t106 127t63 175.5t22 197.5q0 242 -94.5 362t-244.5 120q-141 0 -239 -108t-98 -273q0 -111 53 -196t150 -102q14 71 31 187q40 290 75 393l93 -23q-46 -130 -75 -370q-14 -111 -32 -186q72 16 115.5 73.5t43.5 125.5q0 59 -34 105
l74 66q52 -65 52 -150q0 -101 -72 -182t-193 -92q-50 -175 -137 -265q92 -33 197 -33z" />
    <glyph glyph-name="Ntilde" unicode="&#xd1;" horiz-adv-x="996" 
d="M260 -167q79 0 149.5 49.5t120.5 132.5t83 188.5t44 220.5q-66 205 -66 368l85 16q37 -121 37 -298l39.5 -92.5l48.5 -116.5t40 -103q32 199 96 357.5t150 250t178 91.5q95 0 147 -57l-52 -82q-30 45 -104 45q-120 0 -230 -198t-147 -522q31 -115 31 -271v-39h-86
q-9 69 -9 142q0 45 3 88q-17 48 -59 152l-62 156q-17 -109 -51.5 -202t-87.5 -170.5t-131 -121.5t-172 -44q-137 0 -209 81.5t-72 198.5q0 83 34.5 158t105 125.5t162.5 50.5q90 0 141 -58.5t51 -145.5q0 -84 -48 -163l-84 46q43 71 43 140q0 55 -28.5 89t-81.5 34
q-59 0 -107.5 -42.5t-73.5 -106.5t-25 -132q0 -92 49.5 -153.5t147.5 -61.5zM820 832l-29 33q23 29 74 29q15 0 43 -3t38 -3q32 0 51 17l35 -45q-21 -28 -61 -28q-18 0 -53.5 10t-51.5 10q-27 0 -46 -20z" />
    <glyph glyph-name="Ograve" unicode="&#xd2;" horiz-adv-x="1116" 
d="M933 848l-18 -25q-43 62 -125 62q-90 0 -172 -66t-138 -169t-90 -228.5t-36 -245.5q-71 2 -126.5 24t-88.5 57t-50 76t-17 84q0 74 44.5 125.5t120.5 51.5q46 0 78 -22l53 87q-42 25 -91 25q-131 0 -207.5 -79t-76.5 -188q0 -56 22.5 -107.5t65 -94.5t113.5 -70t161 -29
q9 -155 78 -251.5t199 -96.5q88 0 164.5 41.5t131 110.5t93.5 158.5t58 186t19 191.5q0 140 -42.5 246t-122.5 146zM450 121q116 16 214 76.5t159 142.5t95 172t34 171q0 72 -25 121q81 -98 81 -310q0 -115 -26.5 -233.5t-73 -217.5t-118 -162t-153.5 -63q-90 0 -136.5 83.5
t-50.5 219.5zM786 835q38 0 57.5 -31t19.5 -85q0 -66 -29 -148.5t-79.5 -162t-131 -142t-173.5 -82.5q6 149 50.5 297.5t121.5 251t164 102.5zM716 1022l62 43q35 -76 84 -130l-36 -32q-7 4 -18.5 13t-40.5 39.5t-51 66.5z" />
    <glyph glyph-name="Oacute" unicode="&#xd3;" horiz-adv-x="1116" 
d="M915 823l18 25q80 -40 122.5 -146t42.5 -246q0 -95 -19 -191.5t-58 -186t-93.5 -158.5t-131 -110.5t-164.5 -41.5q-130 0 -199 96.5t-78 251.5q-90 2 -161 29t-113.5 70t-65 94.5t-22.5 107.5q0 109 76.5 188t207.5 79q49 0 91 -25l-53 -87q-32 22 -78 22
q-76 0 -120.5 -51.5t-44.5 -125.5q0 -43 17 -84t50 -76t88.5 -57t126.5 -24q2 120 36 245.5t90 228.5t138 169t172 66q82 0 125 -62zM450 121q4 -136 50.5 -219.5t136.5 -83.5q82 0 153.5 63t118 162t73 217.5t26.5 233.5q0 212 -81 310q25 -49 25 -121q0 -81 -34 -171
t-95 -172t-159 -142.5t-214 -76.5zM786 835q-87 0 -164 -102.5t-121.5 -251t-50.5 -297.5q93 20 173.5 82.5t131 142t79.5 162t29 148.5q0 54 -19.5 85t-57.5 31zM860 1085l62 -43q-22 -36 -49.5 -65.5t-44.5 -41.5l-16 -12l-36 32q49 54 84 130z" />
    <glyph glyph-name="Ocircumflex" unicode="&#xd4;" horiz-adv-x="1116" 
d="M915 823l18 25q80 -40 122.5 -146t42.5 -246q0 -95 -19 -191.5t-58 -186t-93.5 -158.5t-131 -110.5t-164.5 -41.5q-130 0 -199 96.5t-78 251.5q-90 2 -161 29t-113.5 70t-65 94.5t-22.5 107.5q0 109 76.5 188t207.5 79q49 0 91 -25l-53 -87q-32 22 -78 22
q-76 0 -120.5 -51.5t-44.5 -125.5q0 -43 17 -84t50 -76t88.5 -57t126.5 -24q2 120 36 245.5t90 228.5t138 169t172 66q82 0 125 -62zM450 121q4 -136 50.5 -219.5t136.5 -83.5q82 0 153.5 63t118 162t73 217.5t26.5 233.5q0 212 -81 310q25 -49 25 -121q0 -81 -34 -171
t-95 -172t-159 -142.5t-214 -76.5zM786 835q-87 0 -164 -102.5t-121.5 -251t-50.5 -297.5q93 20 173.5 82.5t131 142t79.5 162t29 148.5q0 54 -19.5 85t-57.5 31zM822 1081l41 -5q18 -28 34.5 -59t23.5 -48l7 -17l-61 -29q-6 39 -37 104q-34 -54 -84 -93l-40 46q38 28 67 53
t39 37z" />
    <glyph glyph-name="Otilde" unicode="&#xd5;" horiz-adv-x="1116" 
d="M915 823l18 25q80 -40 122.5 -146t42.5 -246q0 -95 -19 -191.5t-58 -186t-93.5 -158.5t-131 -110.5t-164.5 -41.5q-130 0 -199 96.5t-78 251.5q-90 2 -161 29t-113.5 70t-65 94.5t-22.5 107.5q0 109 76.5 188t207.5 79q49 0 91 -25l-53 -87q-32 22 -78 22
q-76 0 -120.5 -51.5t-44.5 -125.5q0 -43 17 -84t50 -76t88.5 -57t126.5 -24q2 120 36 245.5t90 228.5t138 169t172 66q82 0 125 -62zM450 121q4 -136 50.5 -219.5t136.5 -83.5q82 0 153.5 63t118 162t73 217.5t26.5 233.5q0 212 -81 310q25 -49 25 -121q0 -81 -34 -171
t-95 -172t-159 -142.5t-214 -76.5zM786 835q-87 0 -164 -102.5t-121.5 -251t-50.5 -297.5q93 20 173.5 82.5t131 142t79.5 162t29 148.5q0 54 -19.5 85t-57.5 31zM730 932l-29 33q23 29 74 29q15 0 43 -3t38 -3q32 0 51 17l35 -45q-21 -28 -61 -28q-18 0 -53.5 10t-51.5 10
q-27 0 -46 -20z" />
    <glyph glyph-name="Odieresis" unicode="&#xd6;" horiz-adv-x="1116" 
d="M933 848l-18 -25q-43 62 -125 62q-90 0 -172 -66t-138 -169t-90 -228.5t-36 -245.5q-71 2 -126.5 24t-88.5 57t-50 76t-17 84q0 74 44.5 125.5t120.5 51.5q46 0 78 -22l53 87q-42 25 -91 25q-131 0 -207.5 -79t-76.5 -188q0 -56 22.5 -107.5t65 -94.5t113.5 -70t161 -29
q9 -155 78 -251.5t199 -96.5q88 0 164.5 41.5t131 110.5t93.5 158.5t58 186t19 191.5q0 140 -42.5 246t-122.5 146zM450 121q116 16 214 76.5t159 142.5t95 172t34 171q0 72 -25 121q81 -98 81 -310q0 -115 -26.5 -233.5t-73 -217.5t-118 -162t-153.5 -63q-90 0 -136.5 83.5
t-50.5 219.5zM786 835q38 0 57.5 -31t19.5 -85q0 -66 -29 -148.5t-79.5 -162t-131 -142t-173.5 -82.5q6 149 50.5 297.5t121.5 251t164 102.5zM750 920q-36 0 -36 39q0 22 15 40.5t38 18.5q36 0 36 -39q0 -22 -15 -40.5t-38 -18.5zM863 920q-17 0 -26.5 11t-9.5 28
q0 22 15 40.5t38 18.5q36 0 36 -39q0 -22 -15 -40.5t-38 -18.5z" />
    <glyph glyph-name="multiply" unicode="&#xd7;" horiz-adv-x="222" 
d="M79 266l-55 83l39 26l51 -75l74 73l32 -33l-79 -79l55 -80l-40 -28l-50 74l-73 -73l-34 33z" />
    <glyph glyph-name="Oslash" unicode="&#xd8;" horiz-adv-x="1116" 
d="M806 933l62 -2l-108 -609t-115 -618l-62 2l112 615t111 612zM915 823l18 25q80 -40 122.5 -146t42.5 -246q0 -95 -19 -191.5t-58 -186t-93.5 -158.5t-131 -110.5t-164.5 -41.5q-130 0 -199 96.5t-78 251.5q-90 2 -161 29t-113.5 70t-65 94.5t-22.5 107.5q0 109 76.5 188
t207.5 79q49 0 91 -25l-53 -87q-32 22 -78 22q-76 0 -120.5 -51.5t-44.5 -125.5q0 -43 17 -84t50 -76t88.5 -57t126.5 -24q2 120 36 245.5t90 228.5t138 169t172 66q82 0 125 -62zM450 121q4 -136 50.5 -219.5t136.5 -83.5q82 0 153.5 63t118 162t73 217.5t26.5 233.5
q0 212 -81 310q25 -49 25 -121q0 -81 -34 -171t-95 -172t-159 -142.5t-214 -76.5zM786 835q-87 0 -164 -102.5t-121.5 -251t-50.5 -297.5q93 20 173.5 82.5t131 142t79.5 162t29 148.5q0 54 -19.5 85t-57.5 31z" />
    <glyph glyph-name="Ugrave" unicode="&#xd9;" horiz-adv-x="779" 
d="M823 -35l84 -2q-9 -98 -51 -147t-109 -49q-74 0 -105.5 51.5t-31.5 166.5q0 26 1 40q-93 -257 -208 -257q-123 0 -123 158q0 84 69 314.5t69 312.5q0 130 -64 202t-173 72q-137 0 -228.5 -99t-91.5 -247q0 -114 56 -175.5t133 -61.5q79 0 132.5 55.5t69.5 158.5l93 -22
q-23 -124 -101 -188t-191 -64q-127 0 -207 83.5t-80 220.5q0 174 119.5 284.5t301.5 110.5q147 0 232.5 -84t85.5 -246q0 -77 -32.5 -196l-65 -238t-32.5 -195q0 -29 12 -53t40 -24q35 0 69.5 40t60.5 104t45 127.5t32 124.5q41 260 148 643l87 -11q-11 -70 -31 -146.5
t-34 -118.5l-15 -41q-31 -105 -62.5 -303.5t-31.5 -305.5q0 -131 61 -131q30 0 47.5 37t19.5 99zM556 1022l62 43q35 -76 84 -130l-36 -32q-7 4 -18.5 13t-40.5 39.5t-51 66.5z" />
    <glyph glyph-name="Uacute" unicode="&#xda;" horiz-adv-x="779" 
d="M823 -35l84 -2q-9 -98 -51 -147t-109 -49q-74 0 -105.5 51.5t-31.5 166.5q0 26 1 40q-93 -257 -208 -257q-123 0 -123 158q0 84 69 314.5t69 312.5q0 130 -64 202t-173 72q-137 0 -228.5 -99t-91.5 -247q0 -114 56 -175.5t133 -61.5q79 0 132.5 55.5t69.5 158.5l93 -22
q-23 -124 -101 -188t-191 -64q-127 0 -207 83.5t-80 220.5q0 174 119.5 284.5t301.5 110.5q147 0 232.5 -84t85.5 -246q0 -77 -32.5 -196l-65 -238t-32.5 -195q0 -29 12 -53t40 -24q35 0 69.5 40t60.5 104t45 127.5t32 124.5q41 260 148 643l87 -11q-11 -70 -31 -146.5
t-34 -118.5l-15 -41q-31 -105 -62.5 -303.5t-31.5 -305.5q0 -131 61 -131q30 0 47.5 37t19.5 99zM710 1075l62 -43q-22 -36 -49.5 -65.5t-44.5 -41.5l-16 -12l-36 32q49 54 84 130z" />
    <glyph glyph-name="Ucircumflex" unicode="&#xdb;" horiz-adv-x="779" 
d="M823 -35l84 -2q-9 -98 -51 -147t-109 -49q-74 0 -105.5 51.5t-31.5 166.5q0 26 1 40q-93 -257 -208 -257q-123 0 -123 158q0 84 69 314.5t69 312.5q0 130 -64 202t-173 72q-137 0 -228.5 -99t-91.5 -247q0 -114 56 -175.5t133 -61.5q79 0 132.5 55.5t69.5 158.5l93 -22
q-23 -124 -101 -188t-191 -64q-127 0 -207 83.5t-80 220.5q0 174 119.5 284.5t301.5 110.5q147 0 232.5 -84t85.5 -246q0 -77 -32.5 -196l-65 -238t-32.5 -195q0 -29 12 -53t40 -24q35 0 69.5 40t60.5 104t45 127.5t32 124.5q41 260 148 643l87 -11q-11 -70 -31 -146.5
t-34 -118.5l-15 -41q-31 -105 -62.5 -303.5t-31.5 -305.5q0 -131 61 -131q30 0 47.5 37t19.5 99zM662 1051l41 -5q18 -28 34.5 -59t23.5 -48l7 -17l-61 -29q-6 39 -37 104q-34 -54 -84 -93l-40 46q38 28 67 53t39 37z" />
    <glyph glyph-name="Udieresis" unicode="&#xdc;" horiz-adv-x="779" 
d="M823 -35l84 -2q-9 -98 -51 -147t-109 -49q-74 0 -105.5 51.5t-31.5 166.5q0 26 1 40q-93 -257 -208 -257q-123 0 -123 158q0 84 69 314.5t69 312.5q0 130 -64 202t-173 72q-137 0 -228.5 -99t-91.5 -247q0 -114 56 -175.5t133 -61.5q79 0 132.5 55.5t69.5 158.5l93 -22
q-23 -124 -101 -188t-191 -64q-127 0 -207 83.5t-80 220.5q0 174 119.5 284.5t301.5 110.5q147 0 232.5 -84t85.5 -246q0 -77 -32.5 -196l-65 -238t-32.5 -195q0 -29 12 -53t40 -24q35 0 69.5 40t60.5 104t45 127.5t32 124.5q41 260 148 643l87 -11q-11 -70 -31 -146.5
t-34 -118.5l-15 -41q-31 -105 -62.5 -303.5t-31.5 -305.5q0 -131 61 -131q30 0 47.5 37t19.5 99zM608 920q-36 0 -36 39q0 22 15 40.5t38 18.5q36 0 36 -39q0 -22 -15 -40.5t-38 -18.5zM721 920q-17 0 -26.5 11t-9.5 28q0 22 15 40.5t38 18.5q36 0 36 -39q0 -22 -15 -40.5
t-38 -18.5z" />
    <glyph glyph-name="Yacute" unicode="&#xdd;" horiz-adv-x="803" 
d="M771 883l81 -15q-6 -66 -22 -132t-29 -99l-13 -33q-7 -47 -18 -130.5l-19 -142.5t-21 -140.5t-28 -140t-35 -125.5t-46 -112.5t-58.5 -85t-75 -59t-92.5 -19.5q-54 0 -84 31.5t-30 81.5q0 54 40 94t108 41l2 -79q-42 -6 -63.5 -27t-21.5 -46q0 -21 13.5 -33.5t34.5 -12.5
q44 0 80.5 33.5t64 97t48 136t38.5 167.5q-70 -143 -159 -143q-123 0 -123 158q0 56 29 195.5t29 209.5q0 130 -64 202t-173 72q-137 0 -228.5 -99t-91.5 -247q0 -114 56 -175.5t133 -61.5q79 0 132.5 55.5t69.5 158.5l93 -22q-23 -124 -101 -188t-191 -64q-127 0 -207 83.5
t-80 220.5q0 174 119.5 284.5t301.5 110.5q147 0 232.5 -84t85.5 -246q0 -75 -25 -216t-25 -191q0 -29 12 -53t40 -24q58 0 101.5 82.5t72.5 222.5l10 74l10.5 75l10 68t11 67.5l11 58.5t12 55.5t12.5 44t14.5 39.5t15.5 27zM690 1065l62 -43q-22 -36 -49.5 -65.5
t-44.5 -41.5l-16 -12l-36 32q49 54 84 130z" />
    <glyph glyph-name="Thorn" unicode="&#xde;" horiz-adv-x="423" 
d="M5 134v50q13 0 39 2q28 150 63 358q-27 -15 -58 -41l-38 44q60 45 106 60l19 114h90l-17 -99q96 -1 148.5 -53t52.5 -130q0 -94 -74.5 -179t-209.5 -114l-27 -146h-93l28 135q-10 -1 -29 -1zM201 572l-64 -365q86 33 134.5 103.5t48.5 140.5q0 53 -29 87t-83 34h-7z" />
    <glyph glyph-name="germandbls" unicode="&#xdf;" horiz-adv-x="332" 
d="M55 -232q-42 0 -67.5 29t-25.5 108q0 152 57 435t100 386q29 69 91 69q43 0 75 -37t32 -99q0 -49 -13.5 -90.5t-29 -65.5t-29 -60t-13.5 -74q0 -34 21 -70.5t42 -77t21 -84.5q0 -59 -28.5 -91.5t-81.5 -32.5q-63 0 -93.5 39t-30.5 94q0 19 5 41l80 -10q-8 -34 -8 -56
q0 -50 33 -50q12 0 20.5 7.5t12 19.5t5 21.5t1.5 17.5q0 35 -16.5 68.5t-33 73.5t-16.5 90q0 40 21.5 88t43.5 105t22 119q0 27 -8 41t-20 14q-20 0 -26 -29q-25 -74 -71.5 -275.5t-70.5 -359.5q45 -31 67 -77t22 -94q0 -55 -25.5 -94t-64.5 -39zM62 -182q15 0 24.5 19.5
t9.5 48.5q0 76 -49 126q-9 -69 -9 -120q0 -74 24 -74z" />
    <glyph glyph-name="agrave" unicode="&#xe0;" horiz-adv-x="347" 
d="M232 455l-11 -56q-10 67 -65 67q-45 0 -86 -58t-63.5 -138.5t-22.5 -152.5q0 -127 69 -127q73 0 116 114v-11q0 -98 50 -98q68 0 156 230q0 4 -11.5 9t-16.5 5q-22 -57 -44.5 -98.5t-36.5 -57.5t-20 -16q-8 0 -8 22q0 15 2 26q23 163 63 340h-71zM161 394q31 0 31 -63
q0 -73 -35 -164.5t-68 -91.5q-21 0 -21 52q0 73 31.5 170t61.5 97zM81 602l62 43q35 -76 84 -130l-36 -32q-7 4 -18.5 13t-40.5 39.5t-51 66.5z" />
    <glyph glyph-name="aacute" unicode="&#xe1;" horiz-adv-x="347" 
d="M221 399l11 56h71q-40 -177 -63 -340q-2 -11 -2 -26q0 -22 8 -22q6 0 20 16t36.5 57.5t44.5 98.5q5 0 16.5 -5t11.5 -9q-88 -230 -156 -230q-50 0 -50 98v11q-43 -114 -116 -114q-69 0 -69 127q0 72 22.5 152.5t63.5 138.5t86 58q55 0 65 -67zM161 394q-30 0 -61.5 -97
t-31.5 -170q0 -52 21 -52q33 0 68 91.5t35 164.5q0 63 -31 63zM215 645l62 -43q-22 -36 -49.5 -65.5t-43.5 -41.5l-17 -12l-36 32q49 54 84 130z" />
    <glyph glyph-name="acircumflex" unicode="&#xe2;" horiz-adv-x="347" 
d="M221 399l11 56h71q-40 -177 -63 -340q-2 -11 -2 -26q0 -22 8 -22q6 0 20 16t36.5 57.5t44.5 98.5q5 0 16.5 -5t11.5 -9q-88 -230 -156 -230q-50 0 -50 98v11q-43 -114 -116 -114q-69 0 -69 127q0 72 22.5 152.5t63.5 138.5t86 58q55 0 65 -67zM161 394q-30 0 -61.5 -97
t-31.5 -170q0 -52 21 -52q33 0 68 91.5t35 164.5q0 63 -31 63zM187 631l41 -5q18 -28 34.5 -59t23.5 -48l7 -17l-61 -29q-6 39 -37 104q-34 -54 -84 -93l-40 46q38 28 67 53t39 37z" />
    <glyph glyph-name="atilde" unicode="&#xe3;" horiz-adv-x="347" 
d="M221 399l11 56h71q-40 -177 -63 -340q-2 -11 -2 -26q0 -22 8 -22q6 0 20 16t36.5 57.5t44.5 98.5q5 0 16.5 -5t11.5 -9q-88 -230 -156 -230q-50 0 -50 98v11q-43 -114 -116 -114q-69 0 -69 127q0 72 22.5 152.5t63.5 138.5t86 58q55 0 65 -67zM161 394q-30 0 -61.5 -97
t-31.5 -170q0 -52 21 -52q33 0 68 91.5t35 164.5q0 63 -31 63zM105 502l-29 33q23 29 74 29q15 0 43 -3t38 -3q32 0 51 17l35 -45q-21 -28 -61 -28q-18 0 -53.5 10t-51.5 10q-27 0 -46 -20z" />
    <glyph glyph-name="adieresis" unicode="&#xe4;" horiz-adv-x="347" 
d="M232 455l-11 -56q-10 67 -65 67q-45 0 -86 -58t-63.5 -138.5t-22.5 -152.5q0 -127 69 -127q73 0 116 114v-11q0 -98 50 -98q68 0 156 230q0 4 -11.5 9t-16.5 5q-22 -57 -44.5 -98.5t-36.5 -57.5t-20 -16q-8 0 -8 22q0 15 2 26q23 163 63 340h-71zM161 394q31 0 31 -63
q0 -73 -35 -164.5t-68 -91.5q-21 0 -21 52q0 73 31.5 170t61.5 97zM125 490q-36 0 -36 39q0 22 15 40.5t38 18.5q36 0 36 -39q0 -22 -15 -40.5t-38 -18.5zM238 490q-17 0 -26.5 11t-9.5 28q0 22 15 40.5t38 18.5q36 0 36 -39q0 -22 -15 -40.5t-38 -18.5z" />
    <glyph glyph-name="aring" unicode="&#xe5;" horiz-adv-x="347" 
d="M221 399l11 56h71q-40 -177 -63 -340q-2 -11 -2 -26q0 -22 8 -22q6 0 20 16t36.5 57.5t44.5 98.5q5 0 16.5 -5t11.5 -9q-88 -230 -156 -230q-50 0 -50 98v11q-43 -114 -116 -114q-69 0 -69 127q0 72 22.5 152.5t63.5 138.5t86 58q55 0 65 -67zM161 394q-30 0 -61.5 -97
t-31.5 -170q0 -52 21 -52q33 0 68 91.5t35 164.5q0 63 -31 63zM157 446q-37 0 -56.5 19.5t-19.5 47.5q0 35 27.5 63.5t72.5 28.5q38 0 58 -20t20 -48q0 -35 -27.5 -63t-74.5 -28zM178 575q-27 0 -43 -18.5t-16 -41.5q0 -17 10.5 -28.5t30.5 -11.5q26 0 42.5 18.5t16.5 41.5
q0 17 -10.5 28.5t-30.5 11.5z" />
    <glyph glyph-name="ae" unicode="&#xe6;" horiz-adv-x="447" 
d="M301 75q85 0 146 164q5 0 16.5 -5t11.5 -9q-45 -117 -88 -176t-110 -59q-81 0 -101 88q-42 -88 -104 -88q-88 0 -88 127q0 72 23 152.5t63.5 138.5t85.5 58q58 0 80 -69q44 69 105 69q36 0 55.5 -23t19.5 -59q0 -59 -48 -116t-130 -70v-15q0 -108 63 -108zM161 394
q-30 0 -61.5 -97t-31.5 -170q0 -52 21 -52q34 0 67 92t33 166q0 61 -28 61zM333 404q-29 0 -56 -51t-36 -117q51 25 79.5 67.5t28.5 75.5q0 25 -16 25z" />
    <glyph glyph-name="ccedilla" unicode="&#xe7;" horiz-adv-x="291" 
d="M222 227l-64 34q33 56 33 108q0 35 -20 35q-38 0 -67.5 -69.5t-29.5 -144.5q0 -51 17.5 -83t53.5 -32q37 0 75.5 42t70.5 122q5 0 16.5 -5t11.5 -9q-13 -36 -31.5 -71.5t-45.5 -75t-63 -64t-73 -24.5q-56 0 -84 49.5t-28 125.5q0 70 21.5 138t64 115.5t95.5 47.5
q41 0 60.5 -28.5t19.5 -75.5q0 -64 -33 -135zM72 -104l-15 21q24 24 34 87l30 -5q-4 -37 -13 -58q7 1 20 1q37 0 56.5 -19t19.5 -46q0 -32 -25.5 -57t-67.5 -25q-33 0 -57.5 16.5t-30.5 37.5l45 23q12 -36 48 -36q19 0 31 13t12 30q0 15 -10 25.5t-29 10.5q-12 0 -19 -1.5
t-17 -9t-12 -8.5z" />
    <glyph glyph-name="egrave" unicode="&#xe8;" horiz-adv-x="286" 
d="M140 75q-63 0 -63 108v15q82 13 130 70t48 116q0 36 -19.5 59t-55.5 23q-53 0 -97.5 -47.5t-67 -116t-22.5 -138.5q0 -76 30.5 -125t92.5 -49q67 0 110 59t88 176q0 4 -11.5 9t-16.5 5q-61 -164 -146 -164zM172 404q16 0 16 -25q0 -33 -28.5 -75.5t-79.5 -67.5
q9 66 36 117t56 51zM60 602l62 43q35 -76 84 -130l-36 -32q-7 4 -18.5 13t-40.5 39.5t-51 66.5z" />
    <glyph glyph-name="eacute" unicode="&#xe9;" horiz-adv-x="286" 
d="M140 75q85 0 146 164q5 0 16.5 -5t11.5 -9q-45 -117 -88 -176t-110 -59q-62 0 -92.5 49t-30.5 125q0 70 22.5 138.5t67 116t97.5 47.5q36 0 55.5 -23t19.5 -59q0 -59 -48 -116t-130 -70v-15q0 -108 63 -108zM172 404q-29 0 -56 -51t-36 -117q51 25 79.5 67.5t28.5 75.5
q0 25 -16 25zM204 645l62 -43q-22 -36 -49.5 -65.5t-44.5 -41.5l-16 -12l-36 32q49 54 84 130z" />
    <glyph glyph-name="ecircumflex" unicode="&#xea;" horiz-adv-x="286" 
d="M140 75q85 0 146 164q5 0 16.5 -5t11.5 -9q-45 -117 -88 -176t-110 -59q-62 0 -92.5 49t-30.5 125q0 70 22.5 138.5t67 116t97.5 47.5q36 0 55.5 -23t19.5 -59q0 -59 -48 -116t-130 -70v-15q0 -108 63 -108zM172 404q-29 0 -56 -51t-36 -117q51 25 79.5 67.5t28.5 75.5
q0 25 -16 25zM180 631l41 -5q18 -28 34.5 -59t23.5 -48l7 -17l-61 -29q-6 39 -37 104q-34 -54 -84 -93l-40 46q38 28 67 53t39 37z" />
    <glyph glyph-name="edieresis" unicode="&#xeb;" horiz-adv-x="286" 
d="M140 75q-63 0 -63 108v15q82 13 130 70t48 116q0 36 -19.5 59t-55.5 23q-53 0 -97.5 -47.5t-67 -116t-22.5 -138.5q0 -76 30.5 -125t92.5 -49q67 0 110 59t88 176q0 4 -11.5 9t-16.5 5q-61 -164 -146 -164zM172 404q16 0 16 -25q0 -33 -28.5 -75.5t-79.5 -67.5
q9 66 36 117t56 51zM155 490q-23 0 -35 14.5t-12 36.5q0 29 19.5 54t50.5 25q23 0 35 -14.5t12 -37.5q0 -29 -19.5 -53.5t-50.5 -24.5zM255 490q-23 0 -35 14.5t-12 36.5q0 29 19.5 54t50.5 25q23 0 35 -14.5t12 -37.5q0 -29 -19.5 -53.5t-50.5 -24.5z" />
    <glyph glyph-name="igrave" unicode="&#xec;" horiz-adv-x="191" 
d="M132 456h-85q-2 -7 -12.5 -50.5t-16.5 -71l-15 -70.5t-13 -81t-4 -69q0 -119 72 -119q13 0 25.5 3.5t23.5 13l19.5 17.5t18 25t16 27.5t16 33.5l14 34.5l14.5 38l14 37.5v1q0 4 -11.5 8.5t-16.5 4.5q-65 -171 -103 -171q-20 0 -20 34q0 17 1.5 36t5.5 44l7 43.5t10.5 53
l11.5 52.5l14 62t14 63zM-4 602l62 43q35 -76 84 -130l-36 -32q-7 4 -18.5 13t-40.5 39.5t-51 66.5z" />
    <glyph glyph-name="iacute" unicode="&#xed;" horiz-adv-x="191" 
d="M47 456h85q-4 -19 -14 -63l-14 -62l-11.5 -52.5t-10.5 -53l-7 -43.5t-5.5 -44t-1.5 -36q0 -34 20 -34q38 0 103 171q5 0 16.5 -4.5t11.5 -8.5v-1l-14 -37.5l-14.5 -38l-14 -34.5t-16 -33.5t-16 -27.5t-18 -25l-19.5 -17.5t-23.5 -13t-25.5 -3.5q-72 0 -72 119q0 31 4 69
t13 81l15 70.5t16.5 71t12.5 50.5zM120 645l62 -43q-22 -36 -49.5 -65.5t-44.5 -41.5l-16 -12l-36 32q49 54 84 130z" />
    <glyph glyph-name="icircumflex" unicode="&#xee;" horiz-adv-x="191" 
d="M102 631l41 -5q18 -28 34.5 -59t23.5 -48l7 -17l-61 -29q-6 39 -37 104q-34 -54 -84 -93l-40 46q38 28 67 53t39 37zM47 456h85q-4 -19 -14 -63l-14 -62l-11.5 -52.5t-10.5 -53l-7 -43.5t-5.5 -44t-1.5 -36q0 -34 20 -34q38 0 103 171q5 0 16.5 -4.5t11.5 -8.5v-1
l-14 -37.5l-14.5 -38l-14 -34.5t-16 -33.5t-16 -27.5t-18 -25l-19.5 -17.5t-23.5 -13t-25.5 -3.5q-72 0 -72 119q0 31 4 69t13 81l15 70.5t16.5 71t12.5 50.5z" />
    <glyph glyph-name="idieresis" unicode="&#xef;" horiz-adv-x="146" 
d="M132 456h-85q-2 -7 -12.5 -50.5t-16.5 -71l-15 -70.5t-13 -81t-4 -69q0 -119 72 -119q13 0 25.5 3.5t23.5 13l19.5 17.5t18 25t16 27.5t16 33.5l14 34.5l14.5 38l14 37.5v1q0 4 -11.5 8.5t-16.5 4.5q-65 -171 -103 -171q-20 0 -20 34q0 17 1.5 36t5.5 44l7 43.5t10.5 53
l11.5 52.5l14 62t14 63zM42 490q-36 0 -36 39q0 22 15 40.5t38 18.5q36 0 36 -39q0 -22 -15 -40.5t-38 -18.5zM155 490q-17 0 -26.5 11t-9.5 28q0 22 15 40.5t38 18.5q36 0 36 -39q0 -22 -15 -40.5t-38 -18.5z" />
    <glyph glyph-name="eth" unicode="&#xf0;" horiz-adv-x="346" 
d="M173 536l-7 52q40 1 74 11q-9 53 -55 53q-36 0 -67 -31l-43 51q52 40 109 40q40 0 71 -22.5t45 -65.5q13 8 23.5 17.5t14.5 14.5l4 5l33 -32q-20 -27 -66 -53q0 -4 0.5 -11t0.5 -10q0 -102 -32 -224q-27 -152 -27 -203q0 -29 10 -29q31 0 85 140q5 0 16.5 -5t11.5 -9
q-88 -230 -156 -230q-50 0 -50 98v11q-43 -114 -115 -114q-35 0 -52 34.5t-17 92.5q0 72 22.5 152.5t63 138.5t85.5 58q55 0 65 -67q17 85 21 150q-34 -10 -68 -13zM160 394q-30 0 -61 -97t-31 -170q0 -52 20 -52q33 0 68 91.5t35 164.5q0 63 -31 63z" />
    <glyph glyph-name="ntilde" unicode="&#xf1;" horiz-adv-x="341" 
d="M37 0h-87q9 91 37 166q30 168 49 290h86l-11 -67q52 78 114 78q58 0 58 -71q0 -48 -32.5 -151t-32.5 -143q0 -34 20 -34q38 0 103 171q5 0 16.5 -5t11.5 -9l-27.5 -69t-27.5 -60t-33.5 -54t-37 -32.5t-45.5 -14.5q-28 0 -48 23t-20 66q0 58 32.5 159t32.5 132
q0 20 -16 20q-14 0 -30 -16.5t-36.5 -61t-35.5 -110.5zM100 502l-29 33q23 29 74 29q15 0 43 -3t38 -3q32 0 51 17l35 -45q-21 -28 -61 -28q-18 0 -53.5 10t-51.5 10q-27 0 -46 -20z" />
    <glyph glyph-name="ograve" unicode="&#xf2;" horiz-adv-x="328" 
d="M328 239q-24 -64 -68 -84q25 85 25 144q0 71 -27 119t-75 48q-51 0 -83 -41t-41 -103l-36 9q-31 -91 -31 -178q0 -73 25 -118t74 -45q95 0 149 116q81 29 116 119q0 4 -11.5 9t-16.5 5zM161 401q1 0 3.5 0.5t3.5 0.5q39 0 39 -79q0 -87 -37 -176q-61 18 -61 119
q0 49 15.5 90t36.5 45zM112 67q-3 -1 -8 -1q-19 0 -30 27.5t-11 72.5q0 20 3 43q24 -81 83 -104q-20 -33 -37 -38zM106 602l62 43q35 -76 84 -130l-36 -32q-7 4 -18.5 13t-40.5 39.5t-51 66.5z" />
    <glyph glyph-name="oacute" unicode="&#xf3;" horiz-adv-x="323" 
d="M318 239q5 0 16.5 -5t11.5 -9q-35 -90 -116 -119q-54 -116 -149 -116q-49 0 -74 45t-25 118q0 87 31 178l36 -9q9 62 41 103t83 41q48 0 75 -48t27 -119q0 -59 -25 -144q44 20 68 84zM151 401q-21 -4 -36.5 -45t-15.5 -90q0 -101 61 -119q37 89 37 176q0 79 -39 79
q-1 0 -3.5 -0.5t-3.5 -0.5zM102 67q17 5 37 38q-59 23 -83 104q-3 -23 -3 -43q0 -45 11 -72.5t30 -27.5q5 0 8 1zM200 645l62 -43q-22 -36 -49.5 -65.5t-44.5 -41.5l-16 -12l-36 32q49 54 84 130z" />
    <glyph glyph-name="ocircumflex" unicode="&#xf4;" horiz-adv-x="328" 
d="M328 239q5 0 16.5 -5t11.5 -9q-35 -90 -116 -119q-54 -116 -149 -116q-49 0 -74 45t-25 118q0 87 31 178l36 -9q9 62 41 103t83 41q48 0 75 -48t27 -119q0 -59 -25 -144q44 20 68 84zM161 401q-21 -4 -36.5 -45t-15.5 -90q0 -101 61 -119q37 89 37 176q0 79 -39 79
q-1 0 -3.5 -0.5t-3.5 -0.5zM112 67q17 5 37 38q-59 23 -83 104q-3 -23 -3 -43q0 -45 11 -72.5t30 -27.5q5 0 8 1zM202 631l41 -5q18 -28 34.5 -59t23.5 -48l7 -17l-61 -29q-6 39 -37 104q-34 -54 -84 -93l-40 46q38 28 67 53t39 37z" />
    <glyph glyph-name="otilde" unicode="&#xf5;" horiz-adv-x="328" 
d="M328 239q5 0 16.5 -5t11.5 -9q-35 -90 -116 -119q-54 -116 -149 -116q-49 0 -74 45t-25 118q0 87 31 178l36 -9q9 62 41 103t83 41q48 0 75 -48t27 -119q0 -59 -25 -144q44 20 68 84zM161 401q-21 -4 -36.5 -45t-15.5 -90q0 -101 61 -119q37 89 37 176q0 79 -39 79
q-1 0 -3.5 -0.5t-3.5 -0.5zM112 67q17 5 37 38q-59 23 -83 104q-3 -23 -3 -43q0 -45 11 -72.5t30 -27.5q5 0 8 1zM100 502l-29 33q23 29 74 29q15 0 43 -3t38 -3q32 0 51 17l35 -45q-21 -28 -61 -28q-18 0 -53.5 10t-51.5 10q-27 0 -46 -20z" />
    <glyph glyph-name="odieresis" unicode="&#xf6;" horiz-adv-x="323" 
d="M318 239q-24 -64 -68 -84q25 85 25 144q0 71 -27 119t-75 48q-51 0 -83 -41t-41 -103l-36 9q-31 -91 -31 -178q0 -73 25 -118t74 -45q95 0 149 116q81 29 116 119q0 4 -11.5 9t-16.5 5zM151 401q1 0 3.5 0.5t3.5 0.5q39 0 39 -79q0 -87 -37 -176q-61 18 -61 119
q0 49 15.5 90t36.5 45zM102 67q-3 -1 -8 -1q-19 0 -30 27.5t-11 72.5q0 20 3 43q24 -81 83 -104q-20 -33 -37 -38zM115 490q-36 0 -36 39q0 22 15 40.5t38 18.5q36 0 36 -39q0 -22 -15 -40.5t-38 -18.5zM228 490q-17 0 -26.5 11t-9.5 28q0 22 15 40.5t38 18.5q36 0 36 -39
q0 -22 -15 -40.5t-38 -18.5z" />
    <glyph glyph-name="divide" unicode="&#xf7;" horiz-adv-x="242" 
d="M95 93q-36 0 -36 39q0 22 15 40.5t38 18.5q36 0 36 -39q0 -22 -15 -40.5t-38 -18.5zM135 324q-17 0 -26.5 11t-9.5 28q0 22 15 40.5t38 18.5q36 0 36 -39q0 -22 -15 -40.5t-38 -18.5zM232 283h-209l-9 -52h209z" />
    <glyph glyph-name="oslash" unicode="&#xf8;" horiz-adv-x="328" 
d="M233 476l42 -22q-106 -232 -248 -467l-19 9q120 191 225 480zM328 239q5 0 16.5 -5t11.5 -9q-35 -90 -116 -119q-54 -116 -149 -116q-49 0 -74 45t-25 118q0 87 31 178l36 -9q9 62 41 103t83 41q48 0 75 -48t27 -119q0 -59 -25 -144q44 20 68 84zM161 401
q-21 -4 -36.5 -45t-15.5 -90q0 -101 61 -119q37 89 37 176q0 79 -39 79q-1 0 -3.5 -0.5t-3.5 -0.5zM112 67q17 5 37 38q-59 23 -83 104q-3 -23 -3 -43q0 -45 11 -72.5t30 -27.5q5 0 8 1z" />
    <glyph glyph-name="ugrave" unicode="&#xf9;" horiz-adv-x="349" 
d="M131 456h-85q-20 -79 -45 -209q-16 -85 -16 -137q0 -115 71 -115q53 0 90 82q10 -82 70 -82q13 0 25.5 3.5t23.5 13l19.5 17.5t18 25t16 27.5t16 33.5l14 34.5l14.5 38l14 37.5v1q0 4 -11.5 8.5t-16.5 4.5q-65 -171 -103 -171q-20 0 -20 34q0 17 1.5 36t5.5 44l7 43.5
t10.5 53l11.5 52.5l14 62t14 63h-85q-34 -144 -46 -209l-6 -33q-15 -63 -34.5 -104.5t-32.5 -41.5q-20 0 -20 34q0 41 20 143zM84 602l62 43q35 -76 84 -130l-36 -32q-7 4 -18.5 13t-40.5 39.5t-51 66.5z" />
    <glyph glyph-name="uacute" unicode="&#xfa;" horiz-adv-x="349" 
d="M46 456h85q-20 -83 -45 -211q-20 -102 -20 -143q0 -34 20 -34q13 0 32.5 41.5t34.5 104.5l6 33q12 65 46 209h85q-4 -19 -14 -63l-14 -62l-11.5 -52.5t-10.5 -53l-7 -43.5t-5.5 -44t-1.5 -36q0 -34 20 -34q38 0 103 171q5 0 16.5 -4.5t11.5 -8.5v-1l-14 -37.5l-14.5 -38
l-14 -34.5t-16 -33.5t-16 -27.5t-18 -25l-19.5 -17.5t-23.5 -13t-25.5 -3.5q-60 0 -70 82q-37 -82 -90 -82q-71 0 -71 115q0 52 16 137zM198 645l62 -43q-22 -36 -49.5 -65.5t-44.5 -41.5l-16 -12l-36 32q49 54 84 130z" />
    <glyph glyph-name="ucircumflex" unicode="&#xfb;" horiz-adv-x="349" 
d="M46 456h85q-20 -83 -45 -211q-20 -102 -20 -143q0 -34 20 -34q13 0 32.5 41.5t34.5 104.5l6 33q12 65 46 209h85q-4 -19 -14 -63l-14 -62l-11.5 -52.5t-10.5 -53l-7 -43.5t-5.5 -44t-1.5 -36q0 -34 20 -34q38 0 103 171q5 0 16.5 -4.5t11.5 -8.5v-1l-14 -37.5l-14.5 -38
l-14 -34.5t-16 -33.5t-16 -27.5t-18 -25l-19.5 -17.5t-23.5 -13t-25.5 -3.5q-60 0 -70 82q-37 -82 -90 -82q-71 0 -71 115q0 52 16 137zM170 631l41 -5q18 -28 34.5 -59t23.5 -48l7 -17l-61 -29q-6 39 -37 104q-34 -54 -84 -93l-40 46q38 28 67 53t39 37z" />
    <glyph glyph-name="udieresis" unicode="&#xfc;" horiz-adv-x="349" 
d="M131 456h-85q-20 -79 -45 -209q-16 -85 -16 -137q0 -115 71 -115q53 0 90 82q10 -82 70 -82q13 0 25.5 3.5t23.5 13l19.5 17.5t18 25t16 27.5t16 33.5l14 34.5l14.5 38l14 37.5v1q0 4 -11.5 8.5t-16.5 4.5q-65 -171 -103 -171q-20 0 -20 34q0 17 1.5 36t5.5 44l7 43.5
t10.5 53l11.5 52.5l14 62t14 63h-85q-34 -144 -46 -209l-6 -33q-15 -63 -34.5 -104.5t-32.5 -41.5q-20 0 -20 34q0 41 20 143zM113 490q-36 0 -36 39q0 22 15 40.5t38 18.5q36 0 36 -39q0 -22 -15 -40.5t-38 -18.5zM226 490q-17 0 -26.5 11t-9.5 28q0 22 15 40.5t38 18.5
q36 0 36 -39q0 -22 -15 -40.5t-38 -18.5z" />
    <glyph glyph-name="yacute" unicode="&#xfd;" horiz-adv-x="312" 
d="M312 239q7 0 17.5 -4.5t10.5 -8.5v-1q-47 -121 -147 -225l-22 -129q-14 -80 -43.5 -127.5t-75.5 -47.5q-35 0 -56 20t-21 59q0 31 19 63.5t42 57.5t64 64q9 8 13 12l12 67q-31 -44 -69 -44q-71 0 -71 115q0 52 16 137l45 209h85q-20 -83 -45 -211q-20 -102 -20 -143
q0 -34 20 -34q14 0 28.5 30t27 81t22 98.5t19.5 103.5t14 75h82q-9 -34 -74 -389q73 84 107 172zM31 -224q0 -27 20 -27q21 0 31 51l20 107q-71 -74 -71 -131zM207 645l62 -43q-22 -36 -49.5 -65.5t-43.5 -41.5l-17 -12l-36 32q49 54 84 130z" />
    <glyph glyph-name="thorn" unicode="&#xfe;" horiz-adv-x="336" 
d="M-33 -9l5 -10q-10 -29 -26 -106t-22 -122q0 2 66 424.5t78 542.5h75q-8 -82 -46 -326q42 72 93 72q40 0 60 -37.5t20 -98.5q0 -74 -26.5 -158t-68.5 -138q60 14 99.5 66.5t71.5 138.5q5 0 16.5 -5t11.5 -9q-20 -52 -39 -89t-46.5 -73t-64 -54.5t-80.5 -18.5
q-75 0 -102 61l-59 -350h-67v12q0 123 51 278zM67 203q-4 -19 -4 -21l-21 -131q-12 27 -12 62q0 12 4 42l18 26q-19 27 -19 38q23 110 64 175l-34 -212q-3 -18 -3 -43q0 -64 35 -64q32 0 60 90t28 166q0 63 -22 63q-25 0 -50.5 -50t-43.5 -141zM-79 -269q0 7 3 22
q-3 -13 -3 -22z" />
    <glyph glyph-name="ydieresis" unicode="&#xff;" horiz-adv-x="312" 
d="M312 239q-34 -88 -107 -172q65 355 74 389h-82q-4 -19 -14 -75t-19.5 -103.5t-22 -98.5t-27 -81t-28.5 -30q-20 0 -20 34q0 41 20 143l45 211h-85q-20 -79 -45 -209q-16 -85 -16 -137q0 -115 71 -115q38 0 69 44l-12 -67q-83 -79 -105 -110q-33 -46 -33 -87q0 -39 21 -59
t56 -20q46 0 75.5 47.5t43.5 127.5l22 129q100 104 147 225v1q0 4 -10.5 8.5t-17.5 4.5zM31 -224q0 57 71 131l-20 -107q-10 -51 -31 -51q-20 0 -20 27zM110 490q-36 0 -36 39q0 22 15 40.5t38 18.5q36 0 36 -39q0 -22 -15 -40.5t-38 -18.5zM223 490q-17 0 -26.5 11t-9.5 28
q0 22 15 40.5t38 18.5q36 0 36 -39q0 -22 -15 -40.5t-38 -18.5z" />
    <glyph glyph-name="dotlessi" unicode="&#x131;" horiz-adv-x="191" 
d="M47 456h85q-4 -19 -14 -63l-14 -62l-11.5 -52.5t-10.5 -53l-7 -43.5t-5.5 -44t-1.5 -36q0 -34 20 -34q38 0 103 171q5 0 16.5 -4.5t11.5 -8.5v-1l-14 -37.5l-14.5 -38l-14 -34.5t-16 -33.5t-16 -27.5t-18 -25l-19.5 -17.5t-23.5 -13t-25.5 -3.5q-72 0 -72 119q0 31 4 69
t13 81l15 70.5t16.5 71t12.5 50.5z" />
    <glyph glyph-name="Lslash" unicode="&#x141;" horiz-adv-x="838" 
d="M375 174q66 0 125 17q11 59 23 165q18 164 44 272t60.5 164t71.5 77t87 21q70 0 108 -57t38 -148q0 -93 -36.5 -191.5t-116.5 -189.5t-188 -137l-21 -84h52l-9 -52h-61q-18 -51 -42 -95q20 -9 68.5 -32.5t73 -34t64.5 -21t77 -10.5q46 0 76 30.5t39 68.5l81 -21
q-20 -71 -70.5 -112t-123.5 -41q-41 0 -87 13.5t-74.5 26.5t-82 42.5t-74.5 39.5q-92 -122 -236 -122q-64 0 -100 32t-36 77q0 48 41.5 84t116.5 36q91 0 173 -28q12 27 25 67h-57l9 52h63l12 52q-55 -11 -113 -11q-96 0 -170 24t-117.5 64.5t-65.5 89t-22 102.5
q0 107 75 188t194 81q63 0 116 -30l-39 -80q-34 21 -78 21q-84 0 -136 -56.5t-52 -133.5q0 -90 75 -155t220 -65zM785 840q-19 0 -34 -8.5t-34 -38.5t-34.5 -80.5t-32 -141.5t-29.5 -215q-4 -46 -16 -115q79 51 136 138t81.5 171.5t24.5 159.5q0 58 -16.5 94t-45.5 36z
M254 -189q95 0 157 104q-71 28 -139 28q-44 0 -69 -22t-25 -51q0 -24 20 -41.5t56 -17.5z" />
    <glyph glyph-name="lslash" unicode="&#x142;" horiz-adv-x="226" 
d="M191 443h31l-9 -52h-48q-39 -70 -82 -123q-8 -69 -8 -114q0 -88 38 -88q46 0 113 173q4 0 14 -5t10 -8v-1q-46 -125 -84.5 -180t-85.5 -55q-84 0 -84 163q0 86 24 238h-16l9 52h16q33 178 76 267.5t89 89.5q67 0 67 -93q0 -68 -30 -161q-17 -51 -40 -103zM217 711
q0 22 -10 22q-16 0 -43.5 -86t-51.5 -204h34q70 160 71 268zM92 331q24 45 31 60h-21q-4 -20 -10 -60z" />
    <glyph glyph-name="OE" unicode="&#x152;" horiz-adv-x="1319" 
d="M308 824l42 -49q-97 -93 -160.5 -272t-63.5 -345q0 -101 16.5 -175.5t58.5 -122.5t106 -48q80 0 145 92.5t102 229.5t49 295q-122 31 -186.5 115.5t-64.5 178.5q0 69 35.5 115.5t96.5 46.5q71 0 120 -52t70.5 -134.5t21.5 -189.5q0 -8 -0.5 -22.5t-0.5 -21.5h28
q99 0 184 29q-25 59 -25 129q0 108 56.5 187.5t155.5 79.5q65 0 100 -35t35 -91q0 -74 -58 -154.5t-162 -132.5q11 -26 31 -47q38 6 80 6h10l-10 -82h-6q-61 0 -110 27q-110 -35 -172 -131.5t-62 -204.5q0 -99 52 -166t148 -67q54 0 97 22.5t68.5 59t38.5 78t13 84.5
q0 58 -23 97t-63 39q-36 0 -60 -32.5t-24 -79.5q0 -46 23 -86l-92 -45q-27 52 -27 108q0 81 50.5 138t134.5 57q82 0 126.5 -54.5t44.5 -135.5q0 -53 -20 -105t-58 -96.5t-99 -71.5t-136 -27q-139 0 -214 80t-75 198q0 119 75.5 224.5t210.5 147.5q-16 16 -28 34
q-100 -31 -210 -31q-21 0 -30 1q-7 -97 -24 -187t-49 -176t-75 -150t-105 -102.5t-136 -38.5q-90 0 -152 54.5t-90 142t-28 200.5q0 185 73.5 372t200.5 293zM608 551q0 130 -31.5 207t-95.5 77q-31 -1 -49.5 -33t-18.5 -79q0 -75 48.5 -145t144.5 -98q2 48 2 71zM1090 835
q-53 0 -82.5 -60t-29.5 -144q0 -53 12 -99q77 46 118 110.5t41 119.5q0 33 -15.5 53t-43.5 20z" />
    <glyph glyph-name="oe" unicode="&#x153;" horiz-adv-x="485" 
d="M339 75q85 0 146 164q5 0 16.5 -5t11.5 -9q-45 -117 -88 -176t-110 -59q-84 0 -103 97q-44 -97 -121 -97q-49 0 -74 45t-25 118q0 87 31 178l38 -9q-1 5 -1 14q0 53 30 91.5t83 38.5q72 0 89 -91q46 91 117 91q36 0 55.5 -23t19.5 -59q0 -59 -48 -116t-130 -70v-15
q0 -108 63 -108zM76 264q-13 -52 -13 -100q0 -44 11 -71t30 -27q21 0 42.5 34t38.5 88q-76 7 -109 76zM161 401q-20 -4 -33.5 -29.5t-13.5 -56.5q0 -36 19.5 -62t60.5 -29q13 55 13 99q0 78 -39 78h-7zM371 404q-29 0 -56 -51t-36 -117q51 25 79.5 67.5t28.5 75.5
q0 25 -16 25z" />
    <glyph glyph-name="Scaron" unicode="&#x160;" horiz-adv-x="1098" 
d="M1112 923l-41 5q-18 28 -34.5 59t-23.5 48l-7 17l61 29q6 -39 37 -104q34 54 84 93l40 -46q-38 -28 -67 -53t-39 -37zM44 111l20 79q79 -16 163 -19v13q0 76 21.5 146t61.5 125.5t104.5 89t143.5 33.5q117 0 181 -74.5t73 -189.5q66 41 118 89q-3 57 -3 105
q0 378 152 378q45 0 67 -31t22 -76q0 -168 -140 -339l3 -69q0 -7 0.5 -20t0.5 -19q0 -90 -17 -172.5t-52.5 -154t-86 -124.5t-121.5 -83t-155 -30q-152 0 -246 93t-119 233q-89 0 -191 17zM651 -62l-50 79q109 64 141 196q-193 -101 -419 -117q23 -120 99 -198t199 -78
q145 0 229 135t84 350q0 6 -0.5 18.5t-0.5 19.5q-61 -53 -121 -91q-5 -101 -48.5 -188t-112.5 -126zM752 281v19q0 98 -51.5 166t-142.5 68q-76 0 -132.5 -50.5t-84 -127.5t-27.5 -166q0 -3 0.5 -9.5t0.5 -10.5q239 7 437 111zM1117 780q0 21 -9.5 35.5t-26.5 14.5
q-36 0 -49.5 -37t-13.5 -116q0 -69 6 -168q93 132 93 271z" />
    <glyph glyph-name="scaron" unicode="&#x161;" horiz-adv-x="251" 
d="M128 643l-41 5q-18 28 -34.5 59t-23.5 48l-7 17l61 29q6 -39 37 -104q34 54 84 93l40 -46q-38 -28 -67 -53t-39 -37zM-30 58l61 44q18 -30 44 -30q39 0 39 54q0 28 -6.5 56t-23 74.5t-21.5 62.5q-6 -19 -19.5 -53t-15.5 -41q-28 5 -28 13v1q7 19 25 62.5t26 64.5
q-12 51 -12 96q0 63 23 133l68 -13q-12 -79 -30 -146q1 -37 51 -138.5t50 -161.5v-4q24 39 50 107q5 0 16.5 -5t11.5 -9q-16 -41 -29.5 -71t-33 -63t-40 -53.5t-48.5 -34t-59 -13.5q-35 0 -61.5 18.5t-37.5 49.5z" />
    <glyph glyph-name="Ydieresis" unicode="&#x178;" horiz-adv-x="803" 
d="M771 883l81 -15q-6 -66 -22 -132t-29 -99l-13 -33q-7 -47 -18 -130.5l-19 -142.5t-21 -140.5t-28 -140t-35 -125.5t-46 -112.5t-58.5 -85t-75 -59t-92.5 -19.5q-54 0 -84 31.5t-30 81.5q0 54 40 94t108 41l2 -79q-42 -6 -63.5 -27t-21.5 -46q0 -21 13.5 -33.5t34.5 -12.5
q44 0 80.5 33.5t64 97t48 136t38.5 167.5q-70 -143 -159 -143q-123 0 -123 158q0 56 29 195.5t29 209.5q0 130 -64 202t-173 72q-137 0 -228.5 -99t-91.5 -247q0 -114 56 -175.5t133 -61.5q79 0 132.5 55.5t69.5 158.5l93 -22q-23 -124 -101 -188t-191 -64q-127 0 -207 83.5
t-80 220.5q0 174 119.5 284.5t301.5 110.5q147 0 232.5 -84t85.5 -246q0 -75 -25 -216t-25 -191q0 -29 12 -53t40 -24q58 0 101.5 82.5t72.5 222.5l10 74l10.5 75l10 68t11 67.5l11 58.5t12 55.5t12.5 44t14.5 39.5t15.5 27zM661 930q-23 0 -35 14.5t-12 36.5q0 29 19.5 54
t50.5 25q23 0 35 -14.5t12 -37.5q0 -29 -19.5 -53.5t-50.5 -24.5zM761 930q-23 0 -35 14.5t-12 36.5q0 29 19.5 54t50.5 25q23 0 35 -14.5t12 -37.5q0 -29 -19.5 -53.5t-50.5 -24.5z" />
    <glyph glyph-name="Zcaron" unicode="&#x17d;" horiz-adv-x="643" 
d="M372 835q-81 0 -143 -54.5t-91 -130.5t-29 -155q0 -80 32 -131.5t93 -51.5q51 0 86 43t35 98q0 40 -21 73.5t-64 50.5l59 84q46 -18 72.5 -69.5t26.5 -114.5q0 -88 -50 -151.5t-143 -63.5q-105 0 -162 73.5t-57 180.5q0 52 14 104t43.5 100t70.5 84.5t100 58.5t128 22
q148 0 228.5 -84.5t80.5 -213.5t-80.5 -260.5t-229.5 -219.5q110 -59 110 -192q0 -102 -66 -184t-164 -82q-62 0 -96.5 38t-34.5 95q0 53 30 106t85 87l46 -79q-94 -64 -94 -132q0 -28 18.5 -46.5t45.5 -18.5q66 0 105.5 65t39.5 149q0 121 -73 168q-66 -33 -104 -33
q-12 0 -17 1l14 92h4q50 0 92 -11q128 76 198.5 204t70.5 253q0 109 -54 178.5t-155 69.5zM450 904l-41 5q-18 28 -34.5 59t-23.5 48l-7 17l61 29q6 -39 37 -104q34 54 84 93l40 -46q-38 -28 -67 -53t-39 -36z" />
    <glyph glyph-name="zcaron" unicode="&#x17e;" horiz-adv-x="292" 
d="M4 -5l3 41q24 3 32 3q10 0 15 -1q32 40 60 141t28 164q0 44 -25 44q-7 0 -13.5 -3t-12.5 -11t-10.5 -15.5t-11.5 -24t-11.5 -29l-13.5 -37.5t-16 -42q-28 5 -28 13v1q9 25 22.5 66t21.5 63t21 46.5t29.5 35.5t38.5 11q50 0 74.5 -38.5t24.5 -101.5q0 -82 -35.5 -170
t-88.5 -131q15 -10 25 -20q111 113 159 239q6 0 17 -4t11 -8q-20 -52 -51 -102t-56 -80l-62 -71q21 -40 21 -92q0 -72 -37.5 -128t-99.5 -56q-28 0 -44.5 19t-16.5 49q0 49 27.5 90t80.5 94q-6 29 -18 46q-17 -5 -32 -5q-16 0 -28 4zM38 -261q22 0 37 44t15 100
q0 4 -0.5 11.5t-0.5 11.5q-70 -79 -70 -143q0 -24 19 -24zM172 473l-41 5q-18 28 -34.5 59t-23.5 48l-7 17l61 29q6 -39 37 -104q34 54 84 93l40 -46q-38 -28 -67 -53t-39 -37z" />
    <glyph glyph-name="florin" unicode="&#x192;" horiz-adv-x="275" 
d="M128 211h40l-9 -51h-37q-11 -88 -20 -139t-31 -115.5t-54 -96.5l-53 47q38 50 56 122.5t31 181.5h-41l9 51h39q7 48 13 80t17.5 68t26.5 57.5t39.5 35.5t55.5 14q41 0 62.5 -27t21.5 -70q0 -65 -45 -135l-63 37q46 65 46 110q0 31 -24 31q-34 0 -51 -51t-29 -150z" />
    <glyph glyph-name="circumflex" unicode="&#x2c6;" horiz-adv-x="198" 
d="M102 631l41 -5q18 -28 34.5 -59t23.5 -48l7 -17l-61 -29q-6 39 -37 104q-34 -54 -84 -93l-40 46q38 28 67 53t39 37z" />
    <glyph glyph-name="caron" unicode="&#x2c7;" horiz-adv-x="247" 
d="M118 473l-41 5q-18 28 -34.5 59t-23.5 48l-7 17l61 29q6 -39 37 -104q34 54 84 93l40 -46q-38 -28 -67 -53t-39 -37z" />
    <glyph glyph-name="breve" unicode="&#x2d8;" horiz-adv-x="187" 
d="M151 598l51 -13q-9 -53 -41.5 -83t-69.5 -30q-34 0 -56.5 25.5t-22.5 73.5q0 8 2 24l53 3q-3 -18 -3 -32q0 -28 9 -44.5t23 -16.5q16 0 31.5 24t23.5 69z" />
    <glyph glyph-name="dotaccent" unicode="&#x2d9;" horiz-adv-x="121" 
d="M50 490q-36 0 -36 39q0 22 15 40.5t38 18.5q36 0 36 -39q0 -22 -15 -40.5t-38 -18.5z" />
    <glyph glyph-name="ring" unicode="&#x2da;" horiz-adv-x="272" 
d="M95 446q-37 0 -56.5 19.5t-19.5 47.5q0 35 27.5 63.5t72.5 28.5q38 0 58 -20t20 -48q0 -35 -27.5 -63t-74.5 -28zM116 575q-27 0 -43 -18.5t-16 -41.5q0 -17 10.5 -28.5t30.5 -11.5q26 0 42.5 18.5t16.5 41.5q0 17 -10.5 28.5t-30.5 11.5z" />
    <glyph glyph-name="ogonek" unicode="&#x2db;" horiz-adv-x="231" 
d="M197 -99l19 -49q-34 -17 -70 -17q-43 0 -72 24.5t-29 58.5q0 53 69 92l34 -41q-62 -31 -62 -65q0 -25 36 -25q31 0 75 22z" />
    <glyph glyph-name="tilde" unicode="&#x2dc;" horiz-adv-x="247" 
d="M32 502l-29 33q23 29 74 29q15 0 43 -3t38 -3q32 0 51 17l35 -45q-21 -28 -61 -28q-18 0 -53.5 10t-51.5 10q-27 0 -46 -20z" />
    <glyph glyph-name="hungarumlaut" unicode="&#x2dd;" horiz-adv-x="201" 
d="M48 653l74 -16q-7 -41 -21 -79.5t-25 -55.5l-11 -18l-45 17q25 74 28 152zM150 638l71 -26q-12 -40 -31.5 -75.5t-32.5 -51.5l-13 -16l-43 23q34 68 49 146z" />
    <glyph glyph-name="endash" unicode="&#x2013;" horiz-adv-x="319" 
d="M23 283h279l-9 -52h-279z" />
    <glyph glyph-name="emdash" unicode="&#x2014;" horiz-adv-x="449" 
d="M41 283h379l-9 -52h-379z" />
    <glyph glyph-name="quoteleft" unicode="&#x2018;" horiz-adv-x="162" 
d="M83 728l48 -24q-21 -49 -21 -97q0 -22 3 -46l-78 -11q0 96 48 178z" />
    <glyph glyph-name="quoteright" unicode="&#x2019;" horiz-adv-x="167" 
d="M111 554l-53 9q2 20 2 29q0 49 -28 113l71 33q16 -52 16 -108q0 -39 -8 -76z" />
    <glyph glyph-name="quotesinglbase" unicode="&#x201a;" horiz-adv-x="133" 
d="M18 -132l-37 33q38 59 38 155h74q0 -115 -75 -188z" />
    <glyph glyph-name="quotedblleft" unicode="&#x201c;" horiz-adv-x="230" 
d="M99 748l48 -24q-21 -49 -21 -97q0 -22 3 -46l-78 -11q0 96 48 178zM195 728l48 -24q-21 -49 -21 -97q0 -22 3 -46l-78 -11q0 96 48 178z" />
    <glyph glyph-name="quotedblright" unicode="&#x201d;" horiz-adv-x="135" 
d="M189 553l-53 6v17q0 56 -32 123l69 37q21 -57 21 -122q0 -29 -5 -61zM92 538l-53 6v17q0 58 -33 124l70 37q21 -57 21 -123q0 -29 -5 -61z" />
    <glyph glyph-name="quotedblbase" unicode="&#x201e;" horiz-adv-x="228" 
d="M23 -132l-37 33q38 59 38 155h74q0 -115 -75 -188zM133 -132l-37 33q38 59 38 155h74q0 -115 -75 -188z" />
    <glyph glyph-name="dagger" unicode="&#x2020;" horiz-adv-x="180" 
d="M109 721h92l-74.5 -338.5t-100.5 -472.5h-32q46 262 115 811zM14 429h179l-9 -52h-179z" />
    <glyph glyph-name="daggerdbl" unicode="&#x2021;" horiz-adv-x="180" 
d="M109 721h92l-74.5 -338.5t-100.5 -472.5h-32q46 262 115 811zM5 374h179l-9 -52h-179zM23 478h179l-9 -52h-179z" />
    <glyph glyph-name="bullet" unicode="&#x2022;" horiz-adv-x="108" 
d="M45 257q-29 0 -29 32q0 19 12.5 35.5t31.5 16.5q28 0 28 -31q0 -19 -12.5 -36t-30.5 -17z" />
    <glyph glyph-name="ellipsis" unicode="&#x2026;" horiz-adv-x="432" 
d="M61 -10q-23 0 -35 14.5t-12 36.5q0 29 19.5 54t50.5 25q23 0 35 -14.5t12 -37.5q0 -29 -19.5 -53.5t-50.5 -24.5zM201 -10q-23 0 -35 14.5t-12 36.5q0 29 19.5 54t50.5 25q23 0 35 -14.5t12 -37.5q0 -29 -19.5 -53.5t-50.5 -24.5zM342 -10q-23 0 -35 14.5t-12 36.5
q0 29 19.5 54t50.5 25q23 0 35 -14.5t12 -37.5q0 -29 -19.5 -53.5t-50.5 -24.5z" />
    <glyph glyph-name="perthousand" unicode="&#x2030;" horiz-adv-x="698" 
d="M361 200q-27 0 -45.5 -36t-18.5 -76q0 -53 33 -53q27 0 45.5 36t18.5 75q0 54 -33 54zM365 240q43 0 65 -27.5t22 -69.5q0 -56 -35 -102t-92 -46q-43 0 -65 27.5t-22 69.5q0 56 35 102t92 46zM140 466q14 0 38.5 -3t36.5 -3q84 0 161 67l46 -25q-50 -114 -152 -265.5
t-196 -247.5l-47 37q93 98 172.5 209.5t112.5 173.5l34 62q-44 -35 -128 -35h-13q21 -27 21 -68q0 -56 -35 -101.5t-91 -45.5q-43 0 -65 27.5t-22 69.5q0 56 35 102t92 46zM136 426q-27 0 -45.5 -36t-18.5 -76q0 -53 33 -53q27 0 45.5 36t18.5 75q0 54 -33 54zM583 200
q-27 0 -45.5 -36t-18.5 -76q0 -53 33 -53q27 0 45.5 36t18.5 75q0 54 -33 54zM587 240q43 0 65 -27.5t22 -69.5q0 -56 -35 -102t-92 -46q-43 0 -65 27.5t-22 69.5q0 56 35 102t92 46z" />
    <glyph glyph-name="guilsinglleft" unicode="&#x2039;" horiz-adv-x="218" 
d="M10 231l7 41q100 48 185 112l32 -53q-37 -24 -79 -45t-65 -30l-24 -9q30 -22 61 -48t47 -41l17 -16l-48 -51q-60 81 -133 140z" />
    <glyph glyph-name="guilsinglright" unicode="&#x203a;" horiz-adv-x="241" 
d="M234 244l-7 -41q-100 -48 -185 -112l-32 53q37 24 79 45t65 30l24 9q-30 22 -61 48t-47 42l-17 15l48 51q60 -81 133 -140z" />
    <glyph glyph-name="fraction" unicode="&#x2044;" horiz-adv-x="235" 
d="M221 469l41 -16l-224 -456l-40 15z" />
    <glyph glyph-name="Euro" unicode="&#x20ac;" horiz-adv-x="304" 
d="M130 277h46l-7 -42h-47q-4 -21 -5 -28h47l-7 -42h-43q0 -4 -0.5 -10t-0.5 -9q0 -101 45 -101q27 0 49 28.5t33 71.5l62 -20q-39 -130 -152 -130q-60 0 -90 48t-31 122h-31l7 42h26q2 18 4 28h-25l7 42h27q22 79 66.5 131.5t102.5 52.5q43 0 64 -29t21 -76q0 -63 -31 -130
l-65 29q34 53 34 106q0 50 -30 50q-21 0 -41.5 -38t-34.5 -96z" />
    <glyph glyph-name="trademark" unicode="&#x2122;" horiz-adv-x="378" 
d="M361 456h-46q-4 28 -4 88q0 65 6 103q-31 -128 -67 -191h-39q-3 17 -6 45.5l-7.5 70l-7.5 71.5q-11 -76 -41 -187h-38q50 168 61 265h56l21 -202q20 49 34.5 99.5t19.5 76.5l5 26h60q-10 -84 -10 -170q0 -26 3 -95zM7 721h139l-5 -32h-43q-23 -161 -40 -233h-47
q17 83 39 233h-48z" />
    <glyph glyph-name="minus" unicode="&#x2212;" horiz-adv-x="227" 
d="M23 283h179l-9 -52h-179z" />
    <glyph glyph-name="approxequal" unicode="&#x2248;" horiz-adv-x="197" 
d="M30 302l-29 33q23 29 74 29q15 0 43 -3t38 -3q32 0 51 17l35 -45q-21 -28 -61 -28q-18 0 -53.5 10t-51.5 10q-27 0 -46 -20zM19 242l-29 33q23 29 74 29q15 0 43 -3t38 -3q32 0 51 17l35 -45q-21 -28 -61 -28q-18 0 -53.5 10t-51.5 10q-27 0 -46 -20z" />
    <glyph glyph-name="notequal" unicode="&#x2260;" horiz-adv-x="210" 
d="M159 355l11 -2q-63 -127 -133 -219l-10 5q1 1 11.5 16l24 35.5l30.5 46.5t34.5 57.5t31.5 60.5zM12 224h179l-9 -52h-179zM30 328h179l-9 -52h-179z" />
    <glyph glyph-name="fi" unicode="&#xfb01;" horiz-adv-x="362" 
d="M10 -232q-42 0 -67.5 29t-25.5 108q0 155 57 443.5t100 387.5q28 62 81 62q28 0 47.5 -21t19.5 -58q0 -73 -20.5 -150.5t-53.5 -144.5t-59.5 -110t-53.5 -81q-12 -63 -25 -148q109 15 161 154q5 0 16.5 -5t11.5 -9q-58 -150 -156 -181q57 -60 57 -143q0 -55 -25.5 -94
t-64.5 -39zM177 711q0 22 -10 22q-14 0 -46 -117t-66 -281q47 86 84 190.5t38 185.5zM17 -182q15 0 24.5 19.5t9.5 48.5q0 78 -50 128q-8 -74 -8 -119q0 -77 24 -77zM218 456h85q-4 -19 -14 -63l-14 -62l-11.5 -52.5t-10.5 -53l-7 -43.5t-5.5 -44t-1.5 -36q0 -34 20 -34
q38 0 103 171q5 0 16.5 -4.5t11.5 -8.5v-1l-14 -37.5l-14.5 -38l-14 -34.5t-16 -33.5t-16 -27.5t-18 -25l-19.5 -17.5t-23.5 -13t-25.5 -3.5q-72 0 -72 119q0 31 4 69t13 81l15 70.5t16.5 71t12.5 50.5zM277 514q-23 0 -35 14.5t-12 36.5q0 29 19.5 54t50.5 25
q23 0 35 -14.5t12 -37.5q0 -29 -19.5 -53.5t-50.5 -24.5z" />
    <glyph glyph-name="fl" unicode="&#xfb02;" horiz-adv-x="397" 
d="M10 -232q-42 0 -67.5 29t-25.5 108q0 155 57 443.5t100 387.5q28 62 81 62q28 0 47.5 -21t19.5 -58q0 -73 -20.5 -150.5t-53.5 -144.5t-59.5 -110t-53.5 -81q-12 -63 -25 -148q109 15 161 154q5 0 16.5 -5t11.5 -9q-58 -150 -156 -181q57 -60 57 -143q0 -55 -25.5 -94
t-64.5 -39zM177 711q0 22 -10 22q-14 0 -46 -117t-66 -281q47 86 84 190.5t38 185.5zM17 -182q15 0 24.5 19.5t9.5 48.5q0 78 -50 128q-8 -74 -8 -119q0 -77 24 -77zM284 66q46 0 113 173q4 0 14 -5t10 -8v-1q-46 -125 -84.5 -180t-85.5 -55q-84 0 -84 163q0 101 32 283
q32 181 76 272.5t90 91.5q67 0 67 -93q0 -68 -30 -161q-49 -157 -148 -278q-8 -69 -8 -114q0 -88 38 -88zM388 711q0 22 -10 22q-20 0 -56.5 -129.5t-58.5 -272.5q47 86 85.5 192t39.5 188z" />
    <glyph glyph-name="NULL" horiz-adv-x="500" 
 />
    <glyph glyph-name="CR" horiz-adv-x="500" 
 />
    <glyph glyph-name="r.start" horiz-adv-x="283" 
d="M166 92q0 -21 16 -21q37 0 101 168q5 0 16.5 -4.5t11.5 -8.5v-1l-14 -37.5l-14.5 -38l-14 -34.5t-16 -33.5t-16 -27.5t-18 -25l-19.5 -17.5t-23.5 -13t-25.5 -3.5q-66 0 -66 73q0 29 23.5 96.5t23.5 92.5q0 38 -28 83q-50 -194 -109 -350l-28 14q41 109 108 384
q-22 44 -22 91q0 49 21 116l76 -15q-3 -54 -26 -159l26.5 -29.5t30.5 -35t21.5 -36.5t10.5 -46q0 -36 -23 -102t-23 -80z" />
    <glyph glyph-name="C.small" horiz-adv-x="356" 
d="M179 55q50 0 96.5 49.5t80.5 134.5q5 0 16.5 -5t11.5 -9q-13 -35 -32 -71t-46.5 -75.5t-63.5 -64t-73 -24.5q-86 0 -129.5 76.5t-43.5 195.5q0 108 33 214.5t98 180t144 73.5q58 0 87 -42t29 -110q0 -111 -60 -209l-80 36q65 116 65 200q0 71 -46 71q-44 0 -84.5 -72.5
t-64 -174.5t-23.5 -195q0 -81 21 -130t64 -49z" />
    <glyph glyph-name="R.small" horiz-adv-x="398" 
d="M96 0h-86q51 242 113 616q-14 -13 -44 -47l-45 42q40 49 99.5 84t123.5 35q82 0 126 -47t44 -119q0 -87 -60.5 -168.5t-168.5 -116.5q27 -33 38.5 -86t16.5 -87t19 -34q24 0 63 52t63 115q5 0 16.5 -5t11.5 -9q-33 -87 -85 -161t-95 -74q-41 0 -59 41.5t-26.5 114
t-19.5 100.5zM153 314l5 -2q85 29 135 106.5t50 153.5q0 46 -21.5 75.5t-61.5 29.5q-25 0 -46 -6z" />
    <glyph glyph-name="S.small" horiz-adv-x="409" 
d="M19 251l104 -38q-18 -45 -18 -80q0 -39 19.5 -61.5t50.5 -22.5q41 0 66 40.5t25 94.5q0 51 -23.5 100t-51.5 82t-51.5 81t-23.5 98q0 83 44.5 134t120.5 51q62 0 95.5 -37.5t33.5 -102.5q0 -35 -13 -85l-87 25q15 42 15 76q0 32 -13.5 51t-36.5 19q-29 0 -46.5 -26
t-17.5 -70q0 -37 16.5 -74t40 -69l47 -66t40 -78.5t16.5 -91.5q0 -87 -51 -149t-139 -62q-89 0 -135 44.5t-46 117.5q0 48 19 99z" />
    <glyph glyph-name="T.small" horiz-adv-x="307" 
d="M101 509l-86 -27q-11 31 -11 72q0 70 39 119.5t126 49.5q17 0 49.5 -3.5t47.5 -3.5q78 0 105 59l69 -33q-45 -76 -144 -76q-18 0 -26 1q-56 -335 -122 -667h-88l64.5 349t59.5 324q-94 -10 -94 -101q0 -28 11 -63z" />
    <glyph glyph-name="M.small" horiz-adv-x="600" 
d="M457 -9q-37 0 -54.5 28t-17.5 114q0 109 30 333q-46 -160 -147 -455h-65v206q0 133 2 262q-27 -159 -43.5 -225t-77.5 -254h-73l14.5 39t34.5 104.5t47 160t47 195.5t39 222h98q0 -228 7 -467q93 259 145 467h101q-65 -475 -65 -586q0 -38 5.5 -51t17.5 -13q33 0 98 168
q5 0 16.5 -5t11.5 -9q-88 -234 -171 -234z" />
    <glyph glyph-name="Y.small" horiz-adv-x="246" 
d="M45 721h93q15 -121 25 -319q69 184 131 319h53q-31 -69 -93 -220.5l-87 -209.5q-34 -189 -54 -291h-88q30 174 52 288q-12 287 -32 433z" />
    <glyph glyph-name="E.small" horiz-adv-x="358" 
d="M181 55q50 0 96.5 49.5t80.5 134.5q5 0 16.5 -5t11.5 -9q-92 -235 -220 -235q-75 0 -113.5 47.5t-38.5 119.5q0 69 35 134.5t94 96.5q-50 50 -50 138q0 80 44.5 140.5t122.5 60.5q56 0 87.5 -35t31.5 -87q0 -61 -42 -118l-60 44q35 41 35 85q0 27 -13 44t-34 17
q-39 0 -65.5 -58t-26.5 -126q0 -58 20 -88q16 4 37 4q13 0 20 -1l-9 -59h-2q-29 0 -51 9q-39 -28 -62.5 -83.5t-23.5 -109.5q0 -49 20 -79.5t59 -30.5z" />
    <glyph glyph-name="A.small" horiz-adv-x="458" 
d="M352 681h95q-24 -138 -75 -305q-27 -147 -27 -239q0 -69 17 -69q29 0 96 171q4 0 14 -5t10 -8v-1q-50 -136 -78 -183t-73 -47q-68 0 -68 160q-71 -165 -150 -165q-58 0 -86.5 59.5t-28.5 156.5q0 111 32 231.5t91 206.5t125 86q74 0 95 -94zM260 668q-39 0 -80 -88.5
t-65.5 -204.5t-24.5 -204q0 -105 39 -105q43 0 84.5 89t76.5 240l7 37q13 73 13 125q0 111 -50 111z" />
    <glyph glyph-name="B.small" horiz-adv-x="460" 
d="M160 -5q-8 0 -125 12q-25 -14 -54 -20l-12 72q11 4 31 4q16 0 25 -1q42 128 123 595q-39 -27 -77 -83l-53 38q81 118 235 118q82 0 124.5 -38t42.5 -95q0 -51 -34 -100t-94 -74q70 -23 106 -73.5t36 -112.5q0 -94 -75 -168t-199 -74zM155 45q77 0 124 61t47 138
q0 60 -31 104t-92 54q-14 -72 -27 -128q-38 -161 -87 -221q50 -8 66 -8zM211 447q52 12 82.5 55t30.5 91q0 37 -19 63t-54 29z" />
    <glyph glyph-name="D.small" horiz-adv-x="496" 
d="M-19 -13l-12 72q11 4 31 4q16 0 25 -1q43 132 124 599q-47 -25 -78 -75l-53 43q33 47 88.5 72t120.5 25q122 0 185 -86t63 -215q0 -103 -38 -200t-115.5 -163.5t-175.5 -66.5q-16 0 -110 11q-30 -14 -55 -19zM178 271q-35 -154 -88 -219q44 -7 65 -7q61 0 113 60
t79.5 148.5t27.5 178.5q0 91 -31 155.5t-95 82.5q-53 -320 -71 -399z" />
    <glyph glyph-name="F.small" horiz-adv-x="375" 
d="M226 415h76l-9 -52h-76q-13 -73 -69 -363h-88q7 40 67 363h-63l9 52h64l47 258q-94 -10 -94 -101q0 -28 11 -63l-86 -27q-11 31 -11 72q0 70 39 119.5t126 49.5q17 0 49.5 -3.5t47.5 -3.5q78 0 105 59l69 -33q-45 -76 -144 -76q-18 0 -26 1z" />
    <glyph glyph-name="G.small" horiz-adv-x="412" 
d="M231 -78l17 100q-30 -32 -76 -32q-86 0 -129.5 76.5t-43.5 195.5q0 108 33 214.5t98 180t144 73.5q58 0 87 -42t29 -110q0 -111 -60 -209l-80 36q65 116 65 200q0 71 -46 71q-44 0 -84.5 -72.5t-64 -174.5t-23.5 -195q0 -81 21 -130t64 -49q31 0 53.5 24t32.5 52.5
t21.5 68.5t18.5 55l76 -29l-35 -77q-1 -5 -5.5 -36.5t-13.5 -86t-19 -106.5q-13 -78 -57 -115t-104 -37q-47 0 -73 30t-26 81l76 4q-1 -5 -1 -14q0 -51 39 -51q29 0 42 22t24 82z" />
    <glyph glyph-name="H.small" horiz-adv-x="363" 
d="M302 720h87q-65 -387 -131 -720h-88l62 338h-109l-65 -338h-88l62 338h-48l9 52h49q51 275 60 330h89l-58 -330h109q51 275 60 330z" />
    <glyph glyph-name="I.small" horiz-adv-x="166" 
d="M89 720h87q-65 -387 -131 -720h-88q21 123 67 364.5t65 355.5z" />
    <glyph glyph-name="J.small" horiz-adv-x="157" 
d="M115 720h85q-3 -17 -40.5 -214l-66.5 -359q-23 -128 -93 -205.5t-159 -82.5l-1 87q130 0 163 173q98 544 112 601z" />
    <glyph glyph-name="K.small" horiz-adv-x="333" 
d="M88 720h87l-59 -336q8 -2 15 -5q31 23 58.5 76.5t45 105t50.5 101.5t74 69l51 -76q-29 -13 -58 -54t-50 -85t-56 -93.5t-73 -75.5q25 -30 35.5 -80.5t10.5 -91.5t5.5 -72t21.5 -31q52 0 115 167q5 0 16.5 -5t11.5 -9q-91 -235 -183 -235q-44 0 -56.5 60t-13.5 148.5
t-15 123.5q-9 -4 -17 -5l-60 -317h-88q21 123 67 364.5t65 355.5z" />
    <glyph glyph-name="L.small" horiz-adv-x="457" 
d="M261 37q62 0 113 59t83 143q5 0 16.5 -5t11.5 -9q-20 -52 -39 -89t-46.5 -73t-64 -54.5t-80.5 -18.5q-26 0 -86 7.5t-79 9.5q-28 -16 -63 -20l-12 72q22 2 34 2q4 0 12.5 -0.5t12.5 -0.5q20 51 56 213q-57 17 -88.5 57t-31.5 94t32 111l80 -47q-27 -39 -27 -82
q0 -55 46 -79q24 126 37 213q14 96 56 143t124 47q64 0 97.5 -44.5t33.5 -112.5q0 -109 -74 -206t-193 -104l-13 -52q-26 -105 -66 -158q105 -16 118 -16zM278 563q-29 -176 -44 -248q51 11 91.5 60t60 107.5t19.5 111.5q0 86 -48 86q-59 0 -79 -117z" />
    <glyph glyph-name="N.small" horiz-adv-x="406" 
d="M42 0h-93q9 91 37 166q81 458 91 521h92q-2 -19 -36 -202q46 112 100 178.5t108 66.5q35 0 56.5 -25t21.5 -67q0 -73 -68 -272t-68 -264q0 -34 20 -34q38 0 103 171q5 0 16.5 -5t11.5 -9q-41 -106 -83.5 -168t-97.5 -62q-28 0 -48 23t-20 66q0 67 34 175l68 208.5
t34 150.5q0 30 -26 30q-24 0 -63.5 -57.5t-83.5 -167.5t-71 -236l-17 -91.5l-13.5 -71t-4.5 -24.5z" />
    <glyph glyph-name="O.small" horiz-adv-x="445" 
d="M439 479q0 -112 -29.5 -221t-93.5 -188.5t-148 -79.5q-79 0 -118 64.5t-39 181.5q0 120 31 231t94.5 187t145.5 76q78 0 117.5 -66t39.5 -185zM167 47q47 0 89.5 75.5t66.5 187t24 221.5q0 138 -69 141q-46 0 -87.5 -68.5t-65.5 -178.5t-24 -229q0 -145 66 -149z" />
    <glyph glyph-name="P.small" horiz-adv-x="405" 
d="M13 629q94 97 219 97q98 0 151 -55t53 -137q0 -64 -31 -125t-96.5 -106.5t-152.5 -55.5q-9 -52 -47 -247h-88q20 119 45 248q-23 4 -43.5 10t-29.5 10l-9 5l33 60q28 -23 59 -32l66 355q-45 -25 -76 -70zM232 674l-66 -375q84 16 133.5 84t49.5 145q0 69 -28 108t-89 38z
" />
    <glyph glyph-name="Q.small" horiz-adv-x="425" 
d="M19 -12l-18 71q16 6 37 6q36 0 78 -11q90 59 150.5 200t60.5 266q0 73 -24.5 116.5t-72.5 43.5q-66 0 -104.5 -76t-38.5 -177q0 -68 19 -125.5t55 -86.5l-64 -76q-47 40 -71.5 107.5t-24.5 146.5q0 85 26.5 160.5t83.5 126t132 50.5q85 0 129 -65.5t44 -168.5
q0 -131 -64.5 -264.5t-172.5 -198.5q31 -11 90.5 -37t100 -39.5t70.5 -13.5q47 0 82 27l39 -75q-38 -32 -94 -32q-51 0 -109.5 25t-128 66t-99.5 55q-51 -19 -111 -21z" />
    <glyph glyph-name="U.small" horiz-adv-x="439" 
d="M116 719h87q-11 -51 -48 -198t-54 -236.5t-17 -155.5q0 -57 40 -57q66 0 152 348q30 159 71 300h83q-14 -110 -27 -167t-50 -177q-27 -147 -27 -239q0 -69 17 -69q29 0 96 171q4 0 14 -5t10 -8v-1q-56 -153 -81 -190q-30 -45 -70 -45q-74 0 -74 138v19
q-60 -157 -139 -157q-107 0 -107 148q0 65 22 177t43.5 193z" />
    <glyph glyph-name="V.small" horiz-adv-x="269" 
d="M308 721h63q-28 -57 -56.5 -127t-52 -137l-45.5 -133.5t-39 -123.5l-29.5 -100.5l-20 -71t-7.5 -28.5h-90q1 34 1 101q0 153 -10 308t-20 233l-9 79h98q28 -237 28 -538v-34q41 164 88 307t74 204z" />
    <glyph glyph-name="W.small" horiz-adv-x="439" 
d="M478 721h63q-28 -57 -56.5 -127t-52 -137l-45.5 -133.5t-39 -123.5l-29.5 -100.5l-20 -71t-7.5 -28.5h-90q1 33 1 98q0 89 -3 170l-39 -130.5l-29 -101.5l-10 -36h-90q1 34 1 101q0 153 -10 308t-20 233l-9 79h98q28 -237 28 -538v-34q32 130 73 256q-5 84 -12 163
t-12 116l-5 37h78q9 -85 14 -142q16 41 32 76.5l23 50.5l8 15h53q-51 -105 -107 -259q6 -83 10 -170l6 -132l1 -46q41 164 90 315.5t78 221.5z" />
    <glyph glyph-name="X.small" horiz-adv-x="358" 
d="M118 720h98q-10 -185 -10 -311v-31q88 186 143 343h52q-74 -215 -193 -446q10 -207 55 -207q11 0 23 13t27 45t22.5 50t24.5 63q4 0 14 -5t10 -8v-1q-56 -153 -81 -190q-30 -45 -70 -45q-70 0 -100 144l-39.5 -68l-29.5 -49t-11 -17h-53q52 82 120 210q-12 93 -12 231
q0 117 10 279z" />
    <glyph glyph-name="Z.small" horiz-adv-x="366" 
d="M367 725l11 -57q-2 -10 -15 -63l-18.5 -74l-19 -74t-23.5 -81l-25.5 -75t-30.5 -77.5l-33.5 -66t-39 -63t-43.5 -48.5q36 -9 60 -9q32 0 59.5 17t49 48.5t36.5 62.5t31 74q5 0 16.5 -5t11.5 -9q-3 -7 -12 -31l-12.5 -33t-13 -31t-15.5 -32l-17 -28t-20.5 -27l-23 -21
t-27.5 -17.5t-32 -10t-37 -4.5q-18 0 -33 3t-36.5 10t-29.5 9q-37 -20 -79 -25l-12 72q22 2 32 2q5 0 15 -0.5t14 -0.5q76 110 136.5 276.5t85.5 324.5q-34 0 -91 3q-3 -58 -12 -108l-94 3q10 40 17 82t9 63l1 22q77 -5 140 -5q67 0 120 4z" />
    <glyph glyph-name="parenleft.small" horiz-adv-x="195" 
d="M173 593l49 -29q-121 -253 -121 -564q0 -77 5 -132l-50 -10q-30 126 -30 239q0 245 147 496z" />
    <glyph glyph-name="parenright.small" horiz-adv-x="188" 
d="M18 -142l-49 29q121 253 121 563q0 58 -5 133l50 10q30 -126 30 -240q0 -241 -147 -495z" />
    <glyph glyph-name="s.start" horiz-adv-x="240" 
d="M-18 58l61 44q18 -30 44 -30q39 0 39 54q0 21 -5 46t-10.5 42.5t-17 49.5t-16.5 48q-52 -144 -139 -315l-28 14q84 171 154 350q-12 47 -12 99q0 68 22 135l80 -14q-14 -74 -41 -162q5 -35 21 -62q78 -140 79 -221v-4q24 39 50 107q5 0 16.5 -5t11.5 -9
q-41 -107 -100 -181l-5 -6q-33 -48 -105 -48q-35 0 -61.5 18.5t-37.5 49.5z" />
    <glyph glyph-name="p.swash" horiz-adv-x="341" 
d="M-41 -10q66 399 71 466h75l-8 -54q42 64 88 64q40 0 60 -37.5t20 -98.5q0 -74 -26.5 -158t-68.5 -138q60 14 99.5 66.5t71.5 138.5q5 0 16.5 -5t11.5 -9q-20 -52 -39 -89t-46.5 -73t-64 -54.5t-80.5 -18.5q-74 0 -101 58l-12 -77q-13 -76 -19 -100q190 -52 257 -52
q136 0 194 122l69 -38q-91 -134 -263 -134q-85 0 -270 55q-43 -138 -125.5 -212t-204.5 -74q-96 0 -150 51t-54 123q0 84 70.5 147t196.5 63q84 0 212 -32q9 36 20 100zM-275 -118q-93 0 -143.5 -48.5t-50.5 -112.5q0 -55 37 -94t102 -39q93 0 156 62.5t101 193.5
q-134 38 -202 38zM70 239l-13 -78q-1 -9 -1 -26q0 -60 34 -60q32 0 60 90t28 166q0 63 -22 63q-48 0 -86 -155z" />
    <glyph glyph-name="y.swash" horiz-adv-x="297" 
d="M46 456h85q-20 -83 -45 -211q-20 -102 -20 -143q0 -34 20 -34q30 0 58 118.5t46 269.5h75q-1 -57 -39 -263.5t-40 -221.5q-8 -56 -19 -100q190 -52 257 -52q136 0 194 122l69 -38q-91 -134 -263 -134q-85 0 -270 55q-43 -138 -125.5 -212t-204.5 -74q-96 0 -150 51
t-54 123q0 84 70.5 147t196.5 63q84 0 212 -32q13 56 20 100l9 54q-33 -49 -72 -49q-71 0 -71 115q0 52 16 137zM-115 -118q-93 0 -143.5 -48.5t-50.5 -112.5q0 -55 37 -94t102 -39q93 0 155.5 62.5t100.5 193.5q-132 38 -201 38z" />
    <glyph glyph-name="g.swash" horiz-adv-x="319" 
d="M53 -10q-69 0 -69 127q0 72 22.5 152.5t63.5 138.5t86 58q40 0 52 -42q2 10 4 32h75q-1 -57 -39 -263.5t-40 -221.5q-8 -56 -19 -100q190 -52 257 -52q136 0 194 122l69 -38q-91 -134 -263 -134q-85 0 -270 55q-43 -138 -126 -212t-204 -74q-96 0 -150 51t-54 123
q0 84 70.5 147t196.5 63q84 0 212 -32q13 56 20 100l13 78q-41 -78 -101 -78zM-93 -118q-93 0 -143.5 -48.5t-50.5 -112.5q0 -55 37 -94t102 -39q93 0 155.5 62.5t100.5 193.5q-132 38 -201 38zM161 394q-30 0 -61.5 -97t-31.5 -170q0 -52 21 -52q33 0 68 91.5t35 164.5
q0 63 -31 63z" />
    <glyph glyph-name="j.swash" horiz-adv-x="193" 
d="M77 -26q76 428 90 482h-82q-16 -44 -48.5 -125.5l-36.5 -91.5v-1q0 -4 7 -7t14 -5l7 -1q8 23 26 67l-17.5 -110t-26 -152.5l-26.5 -138.5q-18 1 -54 1q-114 0 -211.5 -21.5t-164.5 -56.5t-115 -80.5t-70 -93.5t-22 -95q0 -80 63.5 -133.5t178.5 -53.5q161 0 277.5 120.5
t179.5 357.5q119 -12 220.5 -54t212.5 -119l44 66q-209 134 -464 158zM-72 -158q29 0 44 -1q-58 -214 -158 -323.5t-225 -109.5q-76 0 -117 37t-41 94q0 50 31.5 101.5t90.5 97.5t157 75t218 29zM134 515q-23 0 -35 14.5t-12 36.5q0 29 19.5 54t50.5 25q23 0 35 -14.5
t12 -37.5q0 -29 -19.5 -53.5t-50.5 -24.5z" />
    <glyph glyph-name="d.swash" horiz-adv-x="355" 
d="M299 397q-36 -186 -36 -260q0 -37 10 -37q28 0 82 139q5 0 16.5 -5t11.5 -9q-88 -230 -164 -230q-50 0 -50 98v11q-43 -114 -115 -114q-35 0 -52 34.5t-17 92.5q0 72 22.5 152.5t63 138.5t85.5 58q55 0 65 -67q21 110 46 190q-10 3 -41 11.5t-43.5 11.5t-38.5 10
t-40.5 10t-35 6.5t-37.5 5t-32 1.5q-136 0 -194 -122l-69 38q91 134 263 134q85 0 284 -59q107 290 316 290q96 0 150 -51.5t54 -123.5q0 -83 -70.5 -146t-196.5 -63q-82 0 -196 29q-21 -71 -41 -174zM538 582q93 0 143.5 49t50.5 114q0 55 -37 94.5t-102 39.5
q-151 0 -239 -264q116 -33 184 -33zM161 394q-30 0 -61 -97t-31 -170q0 -52 20 -52q33 0 68 91.5t35 164.5q0 63 -31 63z" />
    <glyph glyph-name="l.swash" horiz-adv-x="226" 
d="M-260 217q146 0 269 100q32 239 82 361t103 122q68 0 68 -90t-45.5 -193.5t-124.5 -186.5q-17 -102 -17 -176q0 -88 38 -88q46 0 113 173q4 0 14 -5t10 -8v-1q-46 -125 -84.5 -180t-85.5 -55q-84 0 -84 164q0 53 5 98q-123 -84 -263 -84q-147 0 -226 76.5t-79 183.5
q0 70 33 131.5t102.5 102.5t161.5 41q56 0 88 -8.5t77 -29.5l-32 -64l-16 10.5t-44.5 17.5t-71.5 11q-105 0 -167 -65.5t-62 -152.5q0 -84 61.5 -144.5t176.5 -60.5zM217 711q0 22 -10 22q-17 0 -46 -94t-53 -218q51 70 80 147.5t29 142.5z" />
    <glyph glyph-name="e.end" horiz-adv-x="846" 
d="M134 39q23 0 46.5 26t45.5 67.5l46.5 92t56.5 101t69 92t90 67.5t114 26q110 0 169 -59.5t59 -144.5q0 -99 -74 -176t-199 -77q-124 0 -198 90l48 48q31 -42 66.5 -60t84.5 -18q92 0 143.5 56.5t51.5 131.5q0 66 -40 112.5t-111 46.5q-51 0 -92.5 -26t-70.5 -67.5
t-55.5 -91.5l-52.5 -100.5t-54.5 -92t-69.5 -67.5t-91 -26q-62 0 -92.5 49t-30.5 125q0 70 22.5 138.5t67 116t97.5 47.5q36 0 55.5 -23t19.5 -59q0 -60 -48.5 -117t-131.5 -70q-3 -24 -3 -45q0 -113 62 -113zM172 404q-28 0 -53.5 -49.5t-38.5 -118.5q51 25 79.5 67.5
t28.5 75.5q0 25 -16 25z" />
    <glyph glyph-name="k.end" horiz-adv-x="729" 
d="M42 0h-81q-1 9 -1 27q0 35 8 75.5t16 63.5l7 22q73 441 120 548q13 31 36.5 46.5t47.5 15.5q69 0 69 -63q0 -55 -46.5 -140.5t-101.5 -153.5l-16 -83q52 108 116 108q59 0 59 -67q0 -51 -35.5 -111.5t-88.5 -92.5q24 -24 47.5 -70t43.5 -89.5t47 -85t69.5 -67t98.5 -25.5
q91 0 142.5 67t51.5 153q0 70 -35 118t-99 48q-99 0 -131 -125l-76 31q21 59 74.5 101.5t125.5 42.5q100 0 156 -65.5t56 -158.5q0 -67 -28.5 -126t-91 -99t-147.5 -40q-60 0 -111 21.5t-83.5 52.5t-61.5 76t-44.5 81l-33 78.5t-25.5 58.5q-18 -2 -28 -2h-1
q-17 -110 -25 -171zM109 223q33 27 61.5 75t28.5 76q0 20 -17 20q-42 0 -100 -134l-5 -31q12 0 32 -6zM208 711q0 2 0.5 4.5t0.5 3.5q0 14 -9 14q-12 0 -25 -41.5t-40 -166.5q57 105 73 186z" />
    <glyph glyph-name="t_h.swash" horiz-adv-x="958" 
d="M662 0h-81q-2 18 -2 27q0 19 3 39q-39 -71 -89 -71q-62 0 -62 139q0 88 29 248l9 49q-24 4 -81 17t-99.5 19.5t-83.5 6.5q-64 0 -102 -39.5t-38 -89.5q0 -40 27.5 -68t78.5 -28q26 0 52.5 10.5t40.5 21.5l13 11l36 -56q-63 -44 -142 -44q-77 0 -121 43.5t-44 104.5
q0 68 55 119t154 51q37 0 79.5 -7.5t96.5 -20.5t84 -18q19 105 47 228h71q-7 -124 -33 -239h20q41 0 80 11q12 62 20.5 100t19.5 81t21.5 67.5t24.5 46t31 30.5t38 9q40 0 60.5 -26t20.5 -68q0 -62 -41.5 -131t-112.5 -110l-15 -75q52 79 115 79q58 0 58 -71
q0 -48 -32.5 -151t-32.5 -143q0 -34 20 -34q38 0 103 171q5 0 16.5 -5t11.5 -9l-27.5 -69t-27.5 -60t-33.5 -54t-37 -32.5t-45.5 -14.5q-28 0 -48 23t-20 66q0 58 32.5 159t32.5 132q0 20 -16 20q-17 0 -34 -21t-35 -65t-35 -123.5t-30 -185.5zM519 290q-15 -103 -15 -158
q0 -64 20 -64q29 0 95 168q25 146 34 192q-38 -8 -75 -8q-17 0 -25 1q-9 -44 -34 -131zM850 719q0 14 -6 22t-15 8q-17 0 -30.5 -41t-45.5 -194q46 38 71.5 92.5t25.5 112.5z" />
    <glyph glyph-name="n.swash" horiz-adv-x="324" 
d="M36 0h-87q9 91 37 166q30 168 49 290h86l-11 -62q49 73 109 73q71 0 71 -113q0 -78 -55.5 -265t-55.5 -257q0 -80 38 -126t95 -46q63 0 100 42.5t37 100.5q0 68 -47 112l65 65q66 -60 66 -154q0 -87 -59.5 -151.5t-162.5 -64.5q-98 0 -157 57t-59 157q0 80 26 183.5
t52 195.5t26 145q0 47 -26 47q-22 0 -48 -44.5t-48 -138.5z" />
    <glyph glyph-name="m.swash" horiz-adv-x="492" 
d="M36 0h-87q9 91 37 166q30 168 49 290h86l-13 -75q51 86 108 86q28 0 41.5 -19t13.5 -50q0 -3 -0.5 -10t-0.5 -11q51 90 119 90q71 0 71 -113q0 -78 -55.5 -265t-55.5 -257q0 -80 38 -126t95 -46q63 0 100 42.5t37 100.5q0 68 -47 112l65 65q66 -60 66 -154
q0 -87 -59.5 -151.5t-162.5 -64.5q-99 0 -162.5 57.5t-63.5 156.5q0 80 28.5 183.5t57 195.5t28.5 145q0 47 -26 47q-14 0 -29.5 -17t-34.5 -62.5t-35 -114.5q-24 -128 -41 -201h-91q70 321 70 367q0 21 -13 21q-25 0 -53.5 -59t-47.5 -162z" />
    <glyph glyph-name="f.alt" horiz-adv-x="217" 
d="M-17 -299h-79q6 88 20 170t25 120l11 38q107 586 160 707q28 62 81 62q28 0 47.5 -21t19.5 -58q0 -74 -21 -153.5t-55.5 -147.5t-61 -110.5t-53.5 -79.5l-31 -154q49 9 98 55t73 110q5 0 16.5 -5t11.5 -9q-31 -79 -85.5 -130.5t-121.5 -59.5q-45 -235 -55 -334zM223 711
q0 22 -10 22q-23 0 -113 -398q47 87 84.5 191t38.5 185z" />
    <glyph glyph-name="r.end" horiz-adv-x="476" 
d="M22 24q0 52 33 132.5t33 100.5q0 36 -20 74l-40 -106q-28 5 -28 13v1q24 64 41 146q-18 40 -18 84q0 49 23 124l75 -22q-6 -93 -28 -166q49 -50 62 -77q14 -26 14 -54q0 -29 -33.5 -117t-33.5 -134q0 -78 40.5 -115.5t100.5 -37.5q63 0 100 42.5t37 100.5q0 73 -55 119
l57 71q82 -63 82 -168q0 -87 -60 -151t-162 -64q-89 0 -154.5 55.5t-65.5 148.5z" />
    <glyph glyph-name="h.alt" horiz-adv-x="331" 
d="M33 0h-79q2 36 10 77.5t16 64.5l7 23l95 555h78q-9 -110 -51 -273l-9 -59q52 79 115 79q58 0 58 -71q0 -48 -32.5 -151t-32.5 -143q0 -34 20 -34q38 0 103 171q5 0 16.5 -5t11.5 -9l-27.5 -69t-27.5 -60t-33.5 -54t-37 -32.5t-45.5 -14.5q-28 0 -48 23t-20 66
q0 58 32.5 159t32.5 132q0 20 -16 20q-15 0 -33.5 -20t-40.5 -75t-38 -137z" />
    <glyph glyph-name="l.alt" horiz-adv-x="182" 
d="M95 720h82q-26 -163 -81 -344q-27 -147 -27 -239q0 -69 17 -69q29 0 96 171q4 0 14 -5t10 -8v-1q-50 -136 -78 -183t-73 -47q-62 0 -62 139q0 97 29 248q40 211 73 338z" />
    <glyph glyph-name="b.alt" horiz-adv-x="318" 
d="M96 -5q-100 0 -100 169q0 83 25 218q44 231 67 338h72q-12 -96 -58 -276l-4 -19q34 34 75 34q95 0 95 -174q0 -64 -27 -138q50 22 77 92q5 0 16.5 -5t11.5 -9q-17 -47 -51 -79t-74 -44q-26 -48 -58.5 -77t-66.5 -30zM189 305q0 89 -38 89q-32 0 -52.5 -37t-20.5 -87
q0 -48 21 -85.5t61 -45.5q29 77 29 166zM98 69q25 0 45 33q-51 12 -74 64q0 -97 29 -97z" />
    <glyph glyph-name="k.alt" horiz-adv-x="301" 
d="M33 0h-79q2 36 10 77.5t16 64.5l7 23l43.5 251.5t67.5 370.5h77q-5 -152 -72 -404q46 83 103 83q59 0 59 -68q0 -52 -36.5 -113.5t-91.5 -92.5q12 -19 20 -49.5t14.5 -49t18.5 -18.5q20 0 50 41.5t61 122.5q5 0 16.5 -5t11.5 -9q-21 -54 -35 -86t-35 -70t-43.5 -56
t-47.5 -18q-23 0 -39 11.5t-25 33.5t-14 42t-10 48t-8 41h-14zM177 394h-5q-43 0 -100 -135l-5 -30q14 0 32 -6q33 27 61.5 75t28.5 76q0 17 -12 20z" />
    <glyph glyph-name="t_h.alt" horiz-adv-x="520" 
d="M224 0h-81q-2 52 15 102q-19 -35 -29.5 -52t-31.5 -36t-42 -19q-62 0 -62 139q0 88 29 248l9 49q-35 8 -73 23l13 40q51 -24 66 -29q19 106 47 227h71q-8 -126 -33 -239h20q41 0 80 11q12 62 20.5 100t19.5 81t21.5 67.5t24.5 46t31 30.5t38 9q40 0 60.5 -26t20.5 -68
q0 -62 -41.5 -131t-112.5 -110l-15 -75q52 79 115 79q58 0 58 -71q0 -48 -32.5 -151t-32.5 -143q0 -34 20 -34q38 0 103 171q5 0 16.5 -5t11.5 -9l-27.5 -69t-27.5 -60t-33.5 -54t-37 -32.5t-45.5 -14.5q-28 0 -48 23t-20 66q0 58 32.5 159t32.5 132q0 20 -16 20
q-17 0 -34 -21t-35 -65t-35 -123.5t-30 -185.5zM81 290q-15 -104 -15 -158q0 -64 20 -64q29 0 95 168q25 146 34 192q-38 -8 -75 -8h-25q-17 -71 -34 -130zM412 719q0 14 -6 22t-15 8q-17 0 -30.5 -41t-45.5 -194q46 38 71.5 92.5t25.5 112.5z" />
    <glyph glyph-name="a.end" horiz-adv-x="832" 
d="M169 104q-43 -114 -116 -114q-69 0 -69 127q0 72 22.5 152.5t63.5 138.5t86 58q55 0 65 -67l11 56h71q-3 -15 -14 -62t-14.5 -64l-11.5 -55t-11 -58l-7.5 -49.5t-6 -52.5t-1.5 -46q0 -122 64 -186.5t164 -64.5q121 0 201 95.5t80 233.5q0 227 -244 253l7 79
q152 -11 228.5 -100.5t76.5 -226.5q0 -93 -40.5 -179.5t-123 -145.5t-188.5 -59q-148 0 -220.5 84.5t-72.5 239.5v13zM161 394q-30 0 -61.5 -97t-31.5 -170q0 -52 21 -52q33 0 68 91.5t35 164.5q0 63 -31 63z" />
    <glyph glyph-name="t.swash" horiz-adv-x="182" 
d="M84 692h71q-4 -83 -20 -173q55 8 125 32.5t125.5 48.5t123.5 43t124 19q84 0 158 -43l-30 -66q-71 46 -156 46q-84 0 -246.5 -62t-233.5 -73q-18 -85 -44 -174q-15 -104 -15 -158q0 -64 20 -64q29 0 96 171q5 0 16.5 -5.5t11.5 -8.5q-49 -132 -79 -181t-76 -49
q-62 0 -62 139q0 88 29 248l14 76q-86 3 -162 46l35 58q67 -40 138 -46q16 86 37 176z" />
    <glyph glyph-name="y.end" horiz-adv-x="551" 
d="M46 456h85q-20 -83 -45 -211q-20 -102 -20 -143q0 -34 20 -34q14 0 28.5 30t27 81t22 98.5t19.5 103.5t14 75h82q-15 -58 -78 -413q54 48 93 90t78.5 99t60.5 125t21 143q0 107 -58 166t-152 59q-69 0 -125.5 -37t-88.5 -109l-70 29q37 75 112 121t172 46
q120 0 200.5 -70t80.5 -204q0 -51 -11.5 -100t-27 -87.5t-45 -80.5t-52 -69.5t-62.5 -65.5t-62 -57l-64 -54q-8 -7 -12 -10l-18 -106q-14 -80 -43.5 -127.5t-75.5 -47.5q-35 0 -56 20t-21 59q0 45 34 88.5t103 103.5q1 8 6 33t7 39q-31 -44 -69 -44q-71 0 -71 115
q0 52 16 137zM31 -224q0 -27 20 -27q21 0 31 51l18 98q-69 -67 -69 -122z" />
    <glyph glyph-name="_0000" horiz-adv-x="0" 
 />
    <glyph glyph-name="_0001" horiz-adv-x="0" 
 />
    <glyph glyph-name="o_x" horiz-adv-x="717" 
d="M161 401q-21 -4 -36.5 -45t-15.5 -90q0 -101 61 -119q37 89 37 176q0 79 -39 79q-1 0 -3.5 -0.5t-3.5 -0.5zM112 67q17 5 37 38q-59 23 -83 104q-3 -23 -3 -43q0 -45 11 -72.5t30 -27.5q5 0 8 1zM475 464q22 0 37.5 -13t24 -38t12 -51.5t5.5 -63.5q52 164 120 164
q23 0 46 -17l-30 -76q-18 8 -31 8q-33 0 -56 -38t-48 -123q1 -75 9 -113.5t34 -38.5q53 0 119 175q5 0 16.5 -5t11.5 -9q-88 -232 -182 -232q-66 0 -80 119q-54 -122 -107 -122q-57 0 -57 64q0 42 28 94l55 -23q-16 -32 -16 -53q0 -18 13 -18q31 0 79 127q-1 23 -1.5 60
t-1 58.5t-2.5 44.5t-8 34t-15 11q-16 0 -36 -38t-38 -85.5t-54.5 -95.5t-81.5 -64q-54 -116 -149 -116q-49 0 -74 45t-25 118q0 87 31 178l36 -9q9 62 41 103t83 41q48 0 75 -48t27 -119q0 -59 -25 -144q29 17 56.5 70t46 104.5t48 93t64.5 41.5z" />
    </font>
</defs>
</svg>
