<?xml version="1.0" standalone="no"?>
<!DOCTYPE svg PUBLIC "-//W3C//DTD SVG 1.1//EN" "http://www.w3.org/Graphics/SVG/1.1/DTD/svg11.dtd" >
<svg xmlns="http://www.w3.org/2000/svg">
<metadata></metadata>
<defs>
<font id="armalite_rifleregular" horiz-adv-x="80" >
<font-face units-per-em="2048" ascent="1638" descent="-410" />
<missing-glyph horiz-adv-x="535" />
<glyph horiz-adv-x="0" />
<glyph unicode="&#xd;" />
<glyph unicode=" "  horiz-adv-x="535" />
<glyph unicode="&#x09;" horiz-adv-x="535" />
<glyph unicode="&#xa0;" horiz-adv-x="535" />
<glyph unicode="!" horiz-adv-x="790" d="M282 1102q32 202 84 228l24 -24h12l-12 60l96 48l24 -24l60 24v-12l-12 -12v-12q60 0 60 -24l-12 -12q123 0 144 -180v-60q0 -107 -120 -456l-48 -48l12 -12v-12l-12 -36l12 12h12l12 -12v-12l-12 -12h-24l-12 12h-12q0 -36 -60 -36v24h-12l-36 -12q-33 54 -60 264 q-97 173 -108 336zM306 154q28 72 48 72l12 -48h12l60 12l12 -12q0 36 36 36l12 60h-12l-12 12h-12l-48 -60l-36 24l-12 -12h-36v36q83 120 156 120q143 0 192 -84v-12l-84 -36l-36 12l-12 -12l-12 12l-12 -48l36 -12l12 12l12 -12v-12l-48 -36l-12 12v-24l24 -24l60 12v-24 l12 12h12l48 -48l24 48h12v-36q-27 -58 -96 -108l-48 12l-12 -12h-12l-36 12v-12l-24 -24l-120 60q-60 86 -60 132zM402 886l36 12v12l-36 12v-36zM438 1030l24 -24l36 12v12l-36 36zM498 994l36 -12v36h-12zM546 934l12 -12h12l12 12v12l12 -12h60q20 0 48 72l-60 36 l-48 -36l-12 12h-12z" />
<glyph unicode="&#x22;" horiz-adv-x="635" d="M40 1386q29 63 66 66q167 -1 175 -68l-12 -267l-24 -2q-24 -2 -28 46l-35 -15l-73 5l-34 -15l-22 107l11 13l-18 58zM66 1099l11 13l12 1l30 -69l1 -12l-35 -15l-1 12l11 13zM90 969l8 37l72 6l61 -6q2 -24 -34 -28l1 -11l36 3l-6 -61l-24 -2l-13 11l-12 -1l-22 -26 l-12 -2l-26 22l-2 24l47 16l-3 24l-10 -13l-36 -3l-13 11zM352 1137l15 98l-15 35q-16 179 91 189l24 2q120 10 128 -85l-63 -235l-13 11l-12 -1q-24 -2 -41 -76l16 -47l11 13l12 1l26 -21q-16 -56 -75 -104q-86 22 -89 53q-8 83 28 87l-2 23l-24 -2l21 38l-1 12z" />
<glyph unicode="#" />
<glyph unicode="$" />
<glyph unicode="%" />
<glyph unicode="&#x26;" />
<glyph unicode="'" horiz-adv-x="340" d="M56 1137l15 98l-15 35q-16 179 92 189l23 2q120 10 129 -85l-64 -235l-13 11l-12 -1q-23 -2 -41 -76l16 -47l11 13l12 1l26 -21q-16 -56 -75 -104q-86 22 -89 53q-7 83 28 87l-2 23l-24 -2l21 38l-1 12z" />
<glyph unicode="(" />
<glyph unicode=")" />
<glyph unicode="*" />
<glyph unicode="+" />
<glyph unicode="," horiz-adv-x="739" d="M291 158q0 178 228 216h60l96 -48l24 -156q-136 -372 -192 -372h-12l-84 48l24 132h-12l-24 24l12 36q-19 60 -72 60l-36 -12v12zM339 38v36h12l24 -24l-12 -12h-24z" />
<glyph unicode="-" horiz-adv-x="620" d="M40 700q29 147 84 216l168 -60v12l24 24h36v-12l-12 -12v-12q48 0 48 -36h48l12 48h-60l24 24h60l60 -12l36 36l12 -12v-12q-36 0 -72 -180h-24v-12l12 -36h-36v24l-12 -12l-12 12h-24v-12l12 -12v-12l-108 -12l-48 24l-12 -12h-12l-48 12l-120 -12zM256 808l12 -12h24 v12l-24 24l-12 -12v-12zM424 724l36 -12v12l-12 36h24v24h-12l-36 -36v-24z" />
<glyph unicode="." horiz-adv-x="747" d="M287 136v60q24 180 180 180l72 24q168 -63 168 -240q-36 -132 -72 -132h-12l-36 24q0 -24 -48 -24q0 -48 -24 -48l-24 60h-12q0 -60 -48 -60l-12 48h-12q0 -48 -24 -48h-12q-84 76 -84 156z" />
<glyph unicode="/" horiz-adv-x="704" d="M40 -5q76 348 120 348h24v12l-36 12l60 228l108 348q107 504 168 504l48 24q31 -24 120 -24l12 -12v-12q0 -60 -96 -372q-2 -62 -60 -132l12 -12h12q-22 -108 -48 -108l12 -12v-12q-48 -79 -48 -120h-24l-12 12h-12v-12l12 -12v-12h-36v12l12 12v12h-12l-60 -60l84 -84 v-24q-123 -466 -192 -612h-24l-36 12v24l12 12v12l-12 12h-36v-12l12 -12v-12l-12 -12q-72 0 -72 84zM364 967l96 -48v12l12 12l-12 12l12 60l-24 24h-12l12 -12v-24l-12 -12v-12l-48 36l36 36h-24l-36 -36v-48zM424 871l12 -12h24v12l-24 24l-12 -12v-12z" />
<glyph unicode="0" horiz-adv-x="1196" d="M40 599l12 36h12l36 -24h24l-12 12v12q48 42 48 84l-36 -24l-48 12v12l24 24h24l36 -12v12l12 12h12l-36 36h-12l12 -12v-24h-12l-24 24q0 51 84 96l24 -24l-12 -36l84 48v24l-12 -12h-72v24l24 24h60l60 -12v-24h-24v-24q36 0 36 -60h48v24h24v-12q0 -23 -108 -84 l-24 24v-60l12 12h24l12 -36l-12 -12h-12l-12 12v12l-12 -12h-36q0 30 -48 36l-36 -60l24 -36l12 12h36v-36l-24 -24h-24l-12 12h-12v-12l36 -36h12v24h12l84 -36h12l72 36v-12l24 -216q-72 0 -72 -60q12 -48 72 -48l36 12l60 -72v-96q0 -26 -108 -36q-225 84 -300 264 q-60 97 -84 312zM52 911q147 468 408 468l36 12v-12l36 12l36 -12l12 12l24 -36v-84l-24 -72q-92 0 -132 -180l-24 -24h-12q-48 20 -48 72l-36 -12l-72 12l-48 -12v-36l12 12h12l24 -72v-12q-27 0 -48 -36l-12 12h-12l-48 -36q-84 8 -84 24zM76 491l24 -48h24l-12 60z M136 491l24 -84l48 24v84h-12v-24h-12l-36 12zM136 959l48 -24h12v12l-48 48l-12 -12v-24zM256 791l12 -36h12l12 12h12l-12 36h-12l-12 -12h-12zM376 911v12h12l24 -24v-12h-12zM388 275v12l36 12l12 -12v-12h-48zM604 59l12 48l-12 72q129 93 144 132v12h-24 q48 312 96 312v24h-36v12h24v24l-24 48l12 96l-12 12v12l24 60h-24l12 36q-72 252 -144 252v48l12 48l-12 48l24 36q257 0 384 -264q96 -169 96 -288q0 -620 -192 -732q-36 -59 -267 -108h-60q-24 0 -33 60z" />
<glyph unicode="1" horiz-adv-x="716" d="M40 1190l72 48l12 -12l432 180h12l12 -120v-72l-12 -96l12 -84l-12 -84l12 -12l-24 -372h-36l-24 72h-24l-60 -60l12 -12v-24l-24 -36v-12l48 -12l-12 36l36 48v-24l-12 -36h12l36 12l12 -12l12 12l24 -36l-12 -12l12 -12v-12l-12 -48l12 -48v-24l-12 -12l12 -12v-12 l-12 -48h-12l-36 36l-12 -12h-12l-60 24l-12 -12l-24 24l-36 -60l12 -60l-12 12l-60 -36h-12v24l-60 -36v72h-36l12 12v12l-12 12v12l12 48l-12 12l12 60v288l-12 132l12 12v12l-12 36l12 132v60l-96 -24q-17 0 -48 156zM76 170l12 12l-12 12l96 24v-12l-72 -60zM160 74 q12 60 72 60l12 -12v-12l12 12h24l24 -24l-36 -12v-36l48 -24l36 24l12 -12q0 32 120 120v12h-24v24l132 -36l12 12h12l36 -12l12 12l12 -12v-84l-12 -12l12 -12v-12q-9 -36 -84 -60l-192 12h-72q-90 0 -120 96h-24v-24l-12 12h-12zM220 446h24v12l-12 36h-12v-48zM292 242 l24 24l-12 12h-12v-36zM436 206v12l24 24h12v-24l-24 -24zM472 686l24 -24h12v12l-24 60h-12v-48zM484 758l24 -24h12l-24 24h-12z" />
<glyph unicode="2" horiz-adv-x="1119" d="M40 89q45 348 228 348l60 12q181 -24 252 -60l12 12l120 -12h36q166 28 240 108q65 0 84 -60l-12 -36l12 -36l-12 -132v-48l-72 -108l-24 24l-36 -36l12 -12v-36l-156 -36l-360 96h-96q-155 -36 -252 -96l-24 24l12 12zM52 989v48q36 177 168 264l168 48v-48l-36 -84 l24 -24q-50 -14 -108 -84l-12 12q-12 -72 -60 -72l-24 -72l72 -60q48 125 108 144h12q0 -36 24 -36l36 12v24h-36v24h24l-24 36h36q36 -12 36 -72q-39 -228 -192 -228h-48q-135 0 -168 168zM208 545q0 101 264 300h36v-12l-36 -48l48 -84h24v24l-12 48l12 48v48l60 12 l96 -24v24h12l-36 108q48 55 48 168q-72 54 -72 108v60q0 33 144 60l36 -12v-36h-24v-12l48 -12l72 24v-12l12 12h12q87 5 127 -211v-72q-34 -231 -295 -341l-276 -72l-24 96l-60 -12l-12 12q-83 -108 -108 -108l12 -12v-12l-36 -48q0 -36 48 -36v-24h-84zM508 1289l12 60 h48l24 -24v-24l-24 -36l12 -36l-12 -12h-12zM688 821l72 -24v12q0 21 -60 36l-12 -12v-12zM736 761l12 -12h12l12 12v12l-12 12h-12l-12 -12v-12zM748 1145h48l-36 36h-12v-36zM844 149h36v24h-36v-24zM856 1241l48 -24h12v12l-12 36h-48v-24zM952 1277h36v36l-36 -12v-24z " />
<glyph unicode="3" horiz-adv-x="1100" d="M40 1084l84 144q124 144 324 144h12q27 0 36 -132q-108 -42 -108 -60q60 -48 60 -108q-24 -192 -156 -192h-60q-125 0 -180 120v24l24 36q-36 0 -36 24zM52 280v72q38 96 96 96q0 72 132 84q156 -48 156 -108v-12l-24 -36v-12h36l-48 -180l60 -48l-12 -12l12 -12h12 l24 24v-36q0 -24 -36 -24l12 -12v-12q0 -21 -60 -36v24h-36v-24q-163 0 -288 204l12 36h-12q-36 0 -36 24zM100 1096l24 -24l-12 -12v-12l12 -36h24q-12 108 -36 108l-12 -12v-12zM112 304l12 -12v-12l48 12l-48 36l-12 -12v-12zM136 964h36v24h-12zM160 1060l24 -24l12 12 v12h-36zM172 232l36 -36h12v24h12l48 -36q120 39 120 180l-36 36l12 36l-12 12h-12l-72 -48l-48 12v-72l-24 -24l-24 24v-24l72 -60l12 12h12v-12l-24 -24l-84 36v-36zM172 1156l12 -12v-12q86 0 108 108h12l12 -12h12v24l12 12l-12 12l-48 -24l-12 36h-36q0 -60 -60 -60 v-72zM316 916h36v36zM352 1252h48l24 24v12l-60 12zM412 640l12 60v36l48 24l12 -12q0 32 180 72q29 144 72 144v36q0 18 -48 36l-12 12v12l24 60h12l12 -12h12v12l-12 36h-72v24h24v24h-12l-12 -12h-12q-77 31 -84 60v72q8 72 36 72l132 -24l48 12q0 -20 168 -84 q120 -212 120 -336v-48q0 -110 -168 -240q156 -55 156 -168h-12q24 -47 24 -132q0 -279 -396 -360h-24l-12 48l12 12q-30 0 -36 48l-36 -24l-12 72q47 18 108 156l-12 12l12 84v60q0 144 -168 144l-48 -12zM784 520h24l36 12v24h-24zM796 244l12 -12h48v60l-12 -12h-24v36 h-24v-12l12 -12v-12zM820 1288h36v24h-36v-24z" />
<glyph unicode="4" horiz-adv-x="1172" d="M40 310v120q0 30 48 36v12l-12 48q10 53 396 468h36v-12l-24 -168h-12l-12 12h-12l-12 -12v-12l36 -12l12 12l24 -36q-3 -27 -108 -108q0 -24 -84 -108v-24l120 -12l60 12l12 -12v-12l-24 -24l12 -12v-12q-18 -132 -48 -132h-156l-48 -12l-120 36h-24q0 -36 -24 -36h-36z M340 394h12l60 24l-12 60h-36l-24 -24v-60zM460 34v72l48 60l12 -12l48 24l-24 96q9 156 24 156l-12 12v12q0 24 36 24l-24 72v192l-12 48l24 240l-24 96l204 252q155 -16 180 -36l24 24q27 0 36 -132l-12 -48q-48 0 -48 84l-72 -96v-60h12l36 12v-12l12 -12v-12q36 0 36 36 h24v-12q0 -125 -24 -192l12 -60l-12 -60l24 -252l-12 -36h12l48 -12l36 12l60 -24q0 -120 -60 -192l-84 12h-24v-84l-12 -12v-12l36 -24l48 12l12 -12v-12q0 -180 -96 -180l-108 -24v12l-12 -12h-48l-12 12l-12 -12h-96v24q48 0 48 24l-48 48q0 -24 -72 -36v-12 q0 -24 48 -24v-12h-60q-93 0 -120 60zM604 466h48v-36h-24v-12q60 0 60 -48l60 -12q48 12 48 72q-40 36 -72 36v24h48q0 20 -60 36q0 -36 -36 -36l-36 12v-12l-36 -12v-12zM760 850l12 -12h12l-12 -12v-48q48 0 48 -24l-12 -12h24q32 0 48 72q-36 0 -36 84h-12v-48h-24 l-12 60q-27 0 -36 -60zM832 1246l24 24l-12 12h-12v-36z" />
<glyph unicode="5" horiz-adv-x="1100" d="M40 255v12q0 194 156 240v12q228 -21 228 -84v-12l-12 -12l12 -12v-36q0 -86 -48 -180h12q108 -37 108 -84l-24 -120l-12 12h-12l-12 -12h-12q-384 126 -384 276zM112 819l12 12v12l-12 12l120 456q0 84 132 84q0 -96 72 -96v12l36 36q288 -63 288 -108l60 12l24 -24h48 v24l-60 12v12l12 12v12l12 -12h36q0 26 72 72h12q48 0 60 -168q-29 -240 -240 -240l-84 -12l-48 132l12 12h-36q-104 0 -108 -120l-60 12h-108l-36 -132v-36q33 24 156 36q36 -61 36 -120v-24l-60 -60l-48 12l-108 -48h-24q-168 0 -168 216zM544 147v12q0 36 72 36 q58 103 72 228l-12 48l12 36l-24 24v12l12 12q0 63 -120 144l24 120h12l48 -36h36v12l-24 36l12 12h48q24 -24 96 -24q252 -99 252 -348q0 -228 -120 -228l-12 -12v-24l12 -60q-156 -156 -276 -156q0 -24 -60 -24q-32 31 -48 168zM664 1143q50 -84 72 -84l-12 60v120h-24 v-60q0 -24 -36 -24v-12zM724 435q36 0 36 -24l-12 -12v-12l48 -12l24 36q-20 60 -60 60l-36 -12v-24zM856 627q8 -36 96 -36l12 12v48q-24 0 -24 48h-48l-36 -36v-36zM880 1191l12 -72h36l12 60l-48 24z" />
<glyph unicode="6" horiz-adv-x="1136" d="M40 675h24q0 -48 36 -48l48 -12v36l-24 72l-84 -12q0 459 348 648l156 36l48 -48q0 -144 -84 -144l-108 -204v-24h12l12 12h12l12 -60h24v24l36 -24l12 12v12h-36v48h36l36 -36v-96q-132 -105 -132 -264l-24 -120l24 -168l-36 -24l-84 12l-36 -60q17 -49 60 -72l-12 -60 l12 -12v-12l36 12l60 -36l72 48l-12 60l36 24l24 -24v-60q0 -21 -60 -36v-60h-12l-84 12l12 12v24h-12v-24h-24v24q-89 0 -192 144v12l12 12l-24 72q-96 0 -120 372zM100 459l84 -36l24 48l-12 12v12l12 48v12q-92 0 -108 -48v-48zM280 699q48 -12 48 -48h48l36 96 q0 31 -108 48zM412 135v12l12 12l-12 12v72l24 24h12v-12l-12 -12v-12l24 -48q-18 -48 -36 -48h-12zM604 51v36h24v36h-24v48l12 12v12q144 -12 144 -96q0 -33 -96 -84h-24zM604 843v108q0 32 84 48q237 0 360 -228v-12l-12 -12v-12l-12 12h-12q-28 0 -36 -84l60 -48 q36 0 36 48h24v-156l-12 -12l12 -12v-24l-24 -24l12 -12v-12q0 -84 -84 -168h-96q0 48 -24 48l-36 -72l-72 12v48l24 24q0 -48 24 -48v12l-24 84h-48q0 -48 -24 -48h-12l24 156l-12 48v24h12l-12 84v120l12 12v12zM640 1263q12 144 48 144q181 0 300 -180q-64 -96 -120 -96 q-108 132 -228 132zM796 435q0 -28 96 -60l24 24l-12 36l12 60l-12 12h-72q-36 -12 -36 -72zM916 735h36v36h-36v-36z" />
<glyph unicode="7" horiz-adv-x="1040" d="M40 999l24 72v24h-12l12 120v96q0 96 144 96l12 -84q80 36 204 48l48 -24l24 24l312 -60h24q20 0 48 72h12q108 -10 108 -36v-24q-122 -396 -240 -396q0 -28 -180 -36v12q0 36 -48 36v-24h24v-24l-60 12l12 60l-12 -12h-12l-12 48h-12l-156 -72l-12 36h-48q-18 0 -36 -48 l12 -60l-12 -12h-12q-144 60 -144 96zM304 147v84q0 72 48 72l-12 12v48q0 30 48 36l-12 12v12l60 24l12 -12v-12l-12 -12l12 -12l132 48l72 -36l12 12v-24q-24 -288 -60 -288l-12 12v12l12 12l-12 36l12 36l-12 12h-12q-24 -72 -48 -72l12 -12v-12l-12 -60h12 q-28 -84 -48 -84l-24 24l-36 -24q-103 0 -132 156zM376 51h24l36 36v12l-24 36l-36 -12v-72zM544 27v36l36 -12v-24h-36zM592 723l72 120l12 -12h12l72 24h36l24 -24q-96 -24 -96 -48v-24q0 -24 36 -24l12 -12v-12q-17 -60 -84 -60l-48 36l12 36h-60zM640 951h36v24h-36v-24 zM676 615h12l36 -12v-24l-24 -24zM700 1203l48 -24h48v12l-12 48l12 48q-96 0 -96 -84z" />
<glyph unicode="8" horiz-adv-x="1292" d="M40 345h12l-12 12v12q24 171 168 288q77 31 84 60v12q-152 0 -180 276v36q0 219 348 336v-12q0 -30 48 -36q0 24 48 24l-12 12v12l24 24h60l24 -24v-36l-24 -36l36 -12v-12q-32 -84 -156 -84l12 -12v-12q-48 -128 -48 -204v-36q0 -85 24 -132h-48l24 -24h120q24 0 36 -84 q0 -34 -156 -132l-36 -108l12 -12l-12 -48q30 -252 120 -252v-12l-24 -36l12 -12l60 24l36 -96q-44 -36 -84 -36h-12l-12 12l-12 -12h-12q-210 0 -396 168q-40 65 -72 204zM184 153l12 -36l48 12v36l-24 24h-24zM328 849h24l24 24v12l-36 36zM352 1281l36 -36l36 12v12 q-36 0 -36 48h-12l-24 -24v-12zM472 21h12l36 12v36l-48 12v-24l12 -12v-12zM484 1245l36 -36l12 12v12l-12 12v12zM532 1281l24 -24h12v12l-24 24h-12v-12zM568 1305h36v12l-36 12v-24zM700 9l24 24l-24 24q24 0 36 72h24q0 -36 60 -48l24 24v-12q41 0 60 96l-12 12h-12 l-60 -24l12 -12v-12h-36v12l108 180l12 -12v36l-24 36l24 24q-23 2 -72 120q-18 0 -36 48q-108 0 -108 36v108l24 24h12l12 -12q92 0 132 180h24v-24q60 -9 60 -36l-24 -24l36 -12l12 12v12l84 -24l36 84q-48 0 -48 60h-12v-24h-12l-12 12h-12q0 -48 -72 -48l12 12v12 l-24 24h-12v-24q-40 0 -48 192l12 12q-47 0 -108 156h-12l-36 -12v84l36 36h24q0 -84 36 -84h36v48h72v24h36q27 0 36 -60h-12l-12 -12h-12l-36 36q-21 0 -36 -60h36l12 12h12l12 -36l48 36h24v-12q0 -24 -48 -24v-24q72 -3 72 -24l72 36q24 0 24 -72h12l12 12h12l36 -84 l-12 -36l12 -36q0 -68 -72 -156l12 -12v-12q-81 -132 -120 -132v-24q74 -21 168 -132v-12q-60 0 -60 -24q0 -36 -24 -36l-24 24l12 12l-36 24l-12 -12h-24l-12 12h-12l-36 -60v-72q-60 -3 -60 -36v-12q84 29 84 48l-12 12l12 12h12q73 -60 108 -60v12q0 36 24 36l24 -24 l-12 -12q24 0 24 -36l36 -12v24l-12 36h36v-36l-12 -12l12 -12v-12q-24 -144 -48 -144h-12v24h-12l-12 -12h-12l-24 24h-12q0 -39 -120 -60l-12 12h-12l-60 -60h-12l60 -120q0 -24 -204 -60q-55 24 -60 48zM748 1221l24 24l12 -12v-12h-36zM916 1149h24l12 12l12 -12l12 60 q-48 -18 -48 -36l12 -12h-24v-12zM940 81v48h48zM1024 345l60 -12l24 36v24h-12q-72 -12 -72 -36v-12zM1132 333l12 12h12l12 -12l24 36h-60v-36zM1156 957h12l24 24l-12 12h-24v-36zM1192 501v12l36 24h12v-12l-36 -36z" />
<glyph unicode="9" horiz-adv-x="1124" d="M40 861q12 192 48 192l-12 12v12q0 190 324 324h12l108 -12h12v24h24l12 -48l-12 -48l12 -60l-12 -12h-12l-12 12h-12q-60 0 -60 -60q-60 -193 -60 -384q0 -48 60 -144h12v-84l36 -12v24l-24 36l12 12l48 -24l12 12l12 -12l-12 -96l12 -36h-24q-24 0 -48 72h-24l-84 -72 q-312 123 -312 300zM196 885l12 -36l36 24v-36h-24v-24l36 -12q6 48 36 48l-36 72zM232 1185l72 -36l36 96v12l-84 24l-24 -24l12 -12v-12zM364 1293l12 -36l24 24l-12 36h-12v-24h-12zM412 -3v24l72 24l36 -12l-24 36v24h12l12 -12l12 12l60 -12l36 12l24 -24l24 24v-12 q-64 -90 -168 -156q-66 0 -96 72zM592 189l12 36l-12 36l84 168l-24 24v12q60 0 60 48h12l96 -60l24 24l12 -12l108 24v-12l-108 -180q0 -68 -204 -120v12l-12 -12h-24l-12 12h-12zM604 501v48l24 36v12h-24v12q144 119 144 312v48q0 167 -144 300q8 84 24 84l-12 12v12 q0 24 36 24h12v-12h-24v-24h24v24h84q89 0 252 -132v-24h-72l36 -48l-60 -96l36 -24h12v24h12l-12 12v24q48 69 48 108l24 -24l-12 -36l12 12h12q21 0 48 -300l-12 -132h-60v24h24l-12 12v12l12 12v12l-60 12l-24 -60q60 -34 60 -72l12 12h12l12 -12h12l-36 -96 q-48 12 -48 84l-48 60h-12q0 -60 -24 -60h-12l-12 12h-12v-24h-12l12 -12v-24l-36 24q-36 -72 -72 -72l12 -60h-48v48l-84 -84h-24zM652 1269l12 -12v-12l12 12h24v-24h12q24 0 36 72l-12 12l-12 -12h-12l-48 12l-12 -12v-36zM820 1281l36 12v12l-36 36v-60z" />
<glyph unicode=":" />
<glyph unicode=";" />
<glyph unicode="&#x3c;" />
<glyph unicode="=" />
<glyph unicode="&#x3e;" />
<glyph unicode="?" horiz-adv-x="1355" d="M259 1050v48q0 138 180 240q98 48 240 48l36 -48v-84q0 -20 -84 -36l48 -84v-48q-36 -216 -204 -216h-24q-192 42 -192 180zM559 114q44 192 144 192h12q192 0 192 -156v-48q-39 -156 -180 -156h-60q-108 50 -108 168zM583 522v72h24l12 -12h12q18 48 36 48l12 -36h12 q0 60 72 60v12h-12l-12 -12h-12l-12 12v12l36 12v12h-72v-36h-24v24l-12 -12h-24q0 52 192 156q108 71 108 120l-12 12l12 60v96q0 72 -144 132v84q33 60 108 60q420 -36 420 -252l12 -108q0 -115 -96 -192q0 -48 -168 -108l-24 -24h-60v-36h-48v24h36v24l-60 12l-24 -36 l12 -12h-24l-36 12v-12l-60 -60v-24l12 -12v-12l12 12h12q84 -16 84 -48l-72 -156q-228 63 -228 132zM763 438l24 -24l24 36l-12 12h-36v-24zM787 42h36v36l-36 -12v-24zM787 246h24v36h-12zM931 846l24 -24h24v36z" />
<glyph unicode="@" />
<glyph unicode="A" horiz-adv-x="1203" d="M-107 148q0 36 84 36q168 105 168 240q72 144 144 372l12 12h12l-12 12v12q20 108 48 108h24q48 0 120 -252q-60 -72 -132 -72l-12 -12v-36q24 0 24 -60l12 12h144q84 0 84 -108l-36 -36l12 -36l-12 -12h-36l-72 12l-72 -24h-36l-48 -120q120 -32 120 -132l-36 -24 l-12 12v-12l12 -12v-12l-48 -24l-108 12l-36 -12l-96 12l-84 -12q-110 0 -132 156zM121 124h48l-24 24zM205 388l96 -48q18 48 36 48l12 -12l12 12q-25 72 -96 72q-60 -19 -60 -72zM265 1276v48q0 84 84 84h216l12 -12l12 12q179 0 228 -108l120 -432l-36 -36q0 -70 96 -108 q153 -516 240 -516q72 -24 72 -48q0 -132 -120 -132l-60 12q-271 -48 -444 -48q-60 62 -60 144q108 58 108 84l-252 684l-48 132q3 48 24 48q0 36 -48 36q-30 21 -60 108q-84 24 -84 48zM313 544h36l-36 36v-36zM397 460l36 12v12h-36v-24zM517 844q17 -60 84 -60h48v60 l-48 60zM517 1312h12l12 12h12q6 -48 36 -48l12 12v12q-48 0 -48 36h24v24h-12zM589 928l36 -12v24h-36v-12zM613 964l36 -12v12l-24 24h-12v-24zM637 916l36 -12v-12l-12 -12v-12h36l12 36l-24 24l-12 -12h-24v24h-12v-24zM685 1024q40 0 84 -36l24 60v12q-24 48 -72 48 v-12q0 -36 -36 -36v-36zM745 652l24 -60h12q0 24 36 24v12zM913 376l48 -48h36l12 72l-12 12h-60l-24 -24v-12z" />
<glyph unicode="B" horiz-adv-x="1292" d="M40 1300q4 64 60 108l60 -12h48q360 0 360 -60l12 -84l-12 -60l12 -12l-12 -60v-108l12 -36l-12 -60v-564l24 -204q-15 -108 -48 -108q0 48 -60 48q-40 0 -84 -72l-132 -24l-72 12h-24v24h24v72h24v24l-12 -12h-12v24l24 24h24l12 -48l-12 -36h12q81 60 132 60v12 q-36 0 -36 24l-12 -12h-36v24h36v12h-36l-12 -12v36h12l48 -12l36 12l48 -48h12q0 21 -144 132q0 -33 -72 -84h-12v24l-12 -12h-24q0 34 -60 84l12 12l-12 12v216q0 60 72 60v24l-24 24l-48 -12v12l48 48q0 -31 84 -48v12l24 36v12q-60 0 -60 24t-72 24v-36h-24v12l12 432z M148 544l24 -24v12l-24 24v-12zM160 388h24v12l-24 24v-36zM400 472l72 -36l36 12l-12 48l12 60l-108 -36v-48zM472 136l12 -12h48l-24 36l12 12h-36zM652 1252v108l24 24h36l48 -12l48 12l12 -12l60 12h72q202 0 300 -324v-12q0 -192 -168 -336v-12q144 -74 144 -168v-48 l-36 24h-60q-36 -12 -36 -72v-12l108 -36l12 12l12 -60l-72 -84l12 -12v-12l-84 -12l-12 60h12l36 -12v24q-36 0 -36 24l12 36h-48q0 -60 -72 -60l-36 -48v-48q120 -20 120 -96h-12q-9 -84 -84 -84h-60l-12 36l12 36h-12l-36 24q0 -24 -60 -24l-12 -12v-24l12 -12v-12 l-12 -12h-24l-12 12l-12 -12h-36l-24 24v12l12 -12h12v24h-12l-12 -12h-12v24l24 24l48 -36q24 48 72 48q0 24 -36 24q51 52 72 276l48 24q0 135 -216 168v60q36 46 36 108h-24v24h12l12 -12h12q120 0 120 252v36q0 144 -84 144q-108 12 -108 36zM712 136v12l24 24l24 -24z M844 148l60 -12v36q-24 0 -24 36l-12 12h-12l-12 -60v-12zM892 124l24 -24h12v24h-36zM928 724l36 -36h60v24h12l-12 12v24l12 12v12h-48l-60 -12v-36zM1204 436v36h24v-60z" />
<glyph unicode="C" horiz-adv-x="1292" d="M40 568v36l24 24l-24 36v132q22 215 72 228l36 12l-24 60q64 132 96 144l12 -12h12l60 24l12 -12q8 132 120 132l12 12h12v-12l12 12h72l24 -24l-48 -24q0 -65 72 -132q-84 -101 -84 -756q0 -240 84 -240q0 -27 120 -60v-60l-12 -12l12 -12v-48l-12 -12v-12l-84 12v24 l36 48l-12 12v12l12 36h-12l-60 12l12 -12l-12 -60v-36l12 -12v-12l-36 -12q-47 0 -96 60h-12l-12 -12h-12l-60 48h-12v12l12 12v12l-24 24l-60 -12q-162 99 -240 420zM148 400l60 -72h36l24 24l-48 48v12l12 12v12l-84 -12v-24zM244 856l12 -72h24v48l-24 24h-12zM376 1072 q28 -72 48 -72h60v24h-60l12 60h12l12 -12h12v12l-12 36h-24zM448 88l36 -12l36 120l-12 12h-12l-48 -12l12 -12v-12l-12 -60l12 -12zM472 256l12 -36h12l24 24v12h-48zM592 1204v12q0 52 48 72l12 48l-60 48l84 12l48 -36v-12l-12 -48l12 -48q-66 -48 -132 -48zM784 1309 v12q0 96 84 96q216 -7 216 -72h12l84 72h60v-24q-36 0 -48 -60l60 -72v-240q0 -120 -96 -120q0 -24 -48 -24l-60 156q-123 159 -252 264zM808 100q0 77 156 132q96 96 144 276l12 12h60l48 -48v-12q0 -275 -228 -444l-156 -36q-36 62 -36 120zM868 1297l72 -60h24l36 96 q-4 32 -60 48q-72 0 -72 -72v-12zM1048 1093q0 -39 120 -60v12l-12 60l12 12q-36 0 -36 60h-24l-60 -60v-24z" />
<glyph unicode="D" horiz-adv-x="1388" d="M40 82h24q0 -60 48 -60l-24 -24q-31 0 -48 84zM40 106v60q108 16 108 60l-12 192l12 12v12l-12 12v12q10 108 36 108l-24 108h24l12 -12h12v48l-36 -24h-24v24l12 12l-12 12v12l12 96l-12 144l12 216l-12 12h-24l-60 -12l-12 12v36l72 132l36 -12l48 12l96 -12l96 24 q89 0 120 -84v-12h-12l-24 24q-36 0 -36 -36q-49 -60 -96 -60l-12 12l-12 -12v-12l24 -24h36q0 36 24 36l24 -36v-24h-24l-12 12h-12v-12l12 -12v-12l-24 -24q48 -54 48 -84l12 12h36l12 -12h12v24l36 -12l36 12v-132l-24 -24l-12 12v-12l24 -36l-12 -12h-12l-36 36h-12 q-48 -19 -48 -72h-24v24l12 12v12h-24v-48l12 -84l-12 -12q51 -63 120 -72q0 36 24 36t24 -36l-12 -12v-12l12 -12v-12l-12 -12v-12l12 -96q0 -31 -48 -72l-12 -48q72 0 72 -108v-132q-15 -120 -48 -120h-48l-324 -12l-36 36l12 12v24zM172 610l12 -12v24h12l12 -12l72 24 l24 -24v-12l-12 -12v-12h12l36 12v72q-48 0 -48 84h-72l-12 -72l12 -12l-12 -12l-12 12h-24v-48zM208 1042h24l24 24h-48v-24zM280 262l36 12l-24 24l-12 -12v-24zM304 310l60 -36l48 12v24l-60 12h-48v-12zM304 994l72 12l-12 60l-36 -24l-12 12h-12v-60zM316 694l36 -24 l24 48v12l-36 36zM352 586l36 12l-12 36l-24 -24v-24zM412 382h12q72 24 72 72l-72 -24l12 -12v-24h-24v-12zM436 718v24l24 24h12q-18 -48 -36 -48zM628 124q101 72 156 72v12h-24l24 24l24 -24h12l-12 60q39 19 108 144h24l-24 204v324q-34 252 -168 252l-12 12v12l36 36 l-24 36l12 12h24l60 -36l24 24v24h-24v24q0 30 48 36q285 -71 408 -252q48 -65 48 -264v-72l-12 -360q-79 -46 -168 -180l-48 72l-84 -36v-12q0 -40 36 -84v-12q-36 0 -60 -36l-12 -12q0 -36 -24 -36h-12l-12 12h-12q0 -80 -192 -120q-120 0 -120 144zM628 1324l36 24h24 v-12l-36 -36zM712 1276v12l12 12v12l-12 12l36 24v-12l-12 -48l12 -36h-12zM760 1324v24h36v-24h-36zM952 424h48l144 120h12l12 -12v-12l-48 -12l24 -24q0 27 60 36l-60 48v12l-36 -24h-36l-12 12h-12l-12 -48h-24q0 36 -24 36q0 -48 -36 -48v-84zM1144 616l48 -24l36 36 v12l-24 24l-12 -12h-12l-36 12v-48zM1216 568h12v24l24 24h24l-12 -36v-24h12q0 48 48 48v12q-36 0 -36 48l-60 72l-12 -12v-48l12 12h36q-1 -54 -48 -108v-12z" />
<glyph unicode="E" horiz-adv-x="1172" d="M40 125v12q40 0 84 36l-24 408l12 96l-12 72l12 12l-12 60l24 432h-24v12l-12 -12h-24q-24 0 -24 36l60 132l84 -12l372 12l36 -144l-24 -264l24 -216h144l60 12l72 -12h72l24 -24v-24l-12 -60h-12l-36 24l-48 -36q12 -36 72 -36l12 12l12 -12v-12q-49 -35 -132 -36v12 l-12 -12l-60 12h-144l-12 -12h-12v-24h12l-12 -180v-108l-36 -48v-48q36 0 36 -24v-48q0 -80 -72 -120l-60 12h-108l-120 -12v12l-12 -12h-12q-156 0 -156 132zM328 449q48 0 48 -24l-12 -36l12 12h12l12 -12h12l24 36v12l-48 60q-55 -23 -60 -48zM460 1121h36l12 12h12 l12 -12l12 12v12l-12 60h-24l-24 -24l24 -24v-24l-12 12h-36v-24zM472 449l12 -12h24l24 24l-12 12h-24zM472 641q8 -36 96 -36l24 36q-36 44 -36 84q-84 -16 -84 -48v-36zM633 1304q24 24 24 108l84 24l12 -12l180 12h108q84 0 84 -84v-216l-12 -48l12 -36l-48 -24l-36 12 l-36 -36h-36q0 123 -96 228q0 36 -36 36l-48 -24q-156 28 -156 60zM652 110l216 108q20 0 48 -84q96 12 96 36q0 96 -72 96h-12v24l36 72h24v-24h12v36l-12 48h12l24 -24v-24l-12 -12v-12q70 -3 84 -72h12v36l-12 12v12l12 12h12l12 -12v-36l-12 -12l12 -12v-60l-12 -108 l12 -72l-48 -36h-72l-108 12l-84 -12v48l-132 -84q-27 0 -36 144z" />
<glyph unicode="F" horiz-adv-x="1211" d="M40 1246q62 129 132 156l216 -36l96 12l48 -12l48 12l36 -48v-540l60 -12h60l60 12v-12l60 24q144 0 144 -60l12 -48q-15 -120 -48 -120h-60l-36 24h-48l-48 -36h-120q-24 0 -24 -36l-12 -312h-12q0 -37 96 -72l12 -12v-12q0 -132 -84 -132l-72 -12l-60 12h-168 q-120 0 -132 48q-40 0 -48 84l12 12v12l-12 48l36 36v36l-12 48q26 240 60 240l36 12v36q-84 0 -84 144v456h-12l-84 -12zM220 322l48 36h-12l-36 -12v-24zM256 190h48v36h-12l-36 -12v-24zM280 310h36v12l-24 24l-12 -12v-24zM280 562q24 0 24 -36h12v24q24 0 36 -72h24 v-12l12 12h12l12 -12l12 12h12q36 0 36 -36l48 24v36h-48v12q29 72 72 72v60q-36 0 -36 24h24v12h-24l-36 -36l-12 12h-12v-36l12 -84h-24l-12 60h-12q0 -48 -24 -48l12 -12v-36h-12l-12 12h-12l12 60v24h-24l12 -12v-24h-12l-36 24l-36 -12v-12zM328 334h24v12l-24 24v-36z M352 250q9 -63 72 -84h36q0 48 36 48q-9 84 -84 84v36h-36l12 -60zM532 958l48 -12v72h-24q0 -36 -24 -36v-24zM655 1284v72q0 36 132 48l228 -24l48 12h24q84 0 84 -84l-12 -12l12 -60v-156l-108 -96h-12q-20 0 -84 156q-82 108 -288 108z" />
<glyph unicode="G" horiz-adv-x="1424" d="M40 650q48 431 144 480q250 276 540 276l36 12l24 -36v-48q-52 -69 -204 -144q-48 -133 -48 -372l12 -432l-12 -96l108 -84q0 -32 180 -72l12 -84q0 -67 -216 -84q-132 0 -132 60l-12 84q-60 0 -108 -72q-324 280 -324 612zM196 314q0 -72 60 -72l48 36v12h-36v72 q-72 -12 -72 -36v-12zM808 602v24q17 132 72 132h228q42 -72 96 -72l12 12l36 -48h12q0 48 24 48l-24 48l84 12l-12 -84q33 0 48 -120q-15 -123 -36 -144q-30 0 -96 84h-12l-48 -24q-17 60 -84 60l-36 -36v-36l36 -48l-24 -24l-12 12h-12v-24l-12 12h-24v-12q24 0 24 -48 q120 -21 120 -48v-60l60 -12l-12 12v12l36 36h12q0 -36 24 -36l72 24h12v-192l-24 -24h-12q-84 40 -84 168q-32 -4 -48 -60l-12 12h-96q0 -82 -180 -120l-36 108q49 85 132 156l-12 12v60l12 12l-12 12l12 48q0 132 -84 132h-96zM856 1310v72q8 36 96 36l48 -12l48 12 l168 -48h24l60 48h12q27 0 48 -120h-12l12 -12v-12l-12 -72l12 -12q-12 -252 -108 -252l-36 -24q-51 69 -60 144l12 12q-25 0 -108 120q-195 76 -204 120zM1048 1310q24 0 24 -36h12l48 24v12l-24 24l-24 -24v24l12 12v12h-48v-48zM1084 1214l36 -12l24 24v-36h12v36l-12 12 h-60v-24zM1108 674l12 -36q72 16 72 36h-84zM1216 626l24 -36l-12 -12v-12l12 -12h36l-36 84h-24v-12zM1288 602l24 -48h24l12 60l-36 24l-24 -24v-12z" />
<glyph unicode="H" horiz-adv-x="1493" d="M40 50v60l36 36h60q6 -48 36 -48l48 72h12v-36h12l12 12h12l-24 72l12 12h12l24 -60h12q24 0 24 36h12l12 -12h12v12q-30 0 -36 48l-12 -12h-24q0 72 -48 72l-12 36h-12q0 -36 -24 -36h-36l-24 24q15 120 60 120q0 24 -36 24l-12 12v48h24q0 -30 48 -36v12l-12 12v12 l12 12h24l24 -24l-12 -12h12l84 60v-24h12v12l-12 36h-12l-60 -12v36l48 12l-36 36v-12l-12 12h-12l-48 -72h-24l-48 168l12 120l-12 12v12l48 108l-36 24l12 60v48q0 24 -36 24l-60 -12l-12 12v12l24 180l72 -24q93 36 168 36v-12l12 12h204l48 -12l48 12l24 -36l-12 -60 l12 -36q0 -60 -84 -60q0 -72 -24 -72l12 -12v-24h-12l12 -144v-132h252l48 -48l-12 -60l12 -72l-48 -36h-24l-204 -12l-36 -108l36 -12v-132l-12 -108l24 -72h-12l-24 24l12 12l-72 72v-48h-36v36l-24 -24l24 -24q-49 -48 -108 -48v-12l12 -12v-12l60 12h12v-48h-24 q0 -24 36 -24v-24h-12l-60 48h-24q0 -48 -36 -48v-24l12 12h12v-24l-72 -24h-36q-18 0 -36 48l-12 12h-12q0 -48 -24 -48v24l-48 -12q-49 17 -72 60zM280 134l36 -84l36 12q0 24 -36 24l12 12v36l-48 12v-12zM280 506l24 -24h12v24h-36zM316 674l12 -12h12l12 12v12l-12 12 h-12l-12 -12v-12zM436 -10h36l-24 -24h-12v24zM484 74l60 48l12 -12v12l12 -12h72q0 36 24 36l12 -12h12l-12 -72h-24v36l-36 -24l-24 24v-24l-36 24h-24l12 -12v-48h-12q-48 18 -48 36zM496 398l12 -48l60 24q-4 32 -60 48l-12 -12v-12zM544 2v24l48 12v-36h-48zM805 32v48 l24 24l12 -12v24l60 60h24v-12l12 -12l36 -12l60 24l24 -24l12 36h12l36 -24l12 12l12 -12h12l48 48l-12 60q-76 -6 -120 -48h-12v24h-36l-60 12l-24 -24l-36 36l12 72l-12 108q15 60 36 60h24v-24h24l-72 108l-12 84l12 12l-12 204v288q0 20 -84 48v60q0 63 36 108l228 -24 l12 12h12l48 -12h24v12l60 -12l168 12q36 -64 48 -168l-36 -24h-72v-36l-12 -156l12 -108h-12l12 -12v-48q-24 -28 -24 -84l-60 12l-12 -12v-12q36 0 36 -24l-12 -12h-12l-36 24l-72 -120h-12v-36l72 -36q67 12 108 48q28 -384 60 -384q38 0 72 -60h-12l-72 12l-12 -12v-12 l24 -24v-12l-36 24h-24v-36q20 -48 84 -48l12 12h12l12 -12v-12l-48 -24h-24v12l-264 -12h-228zM808 156v60h24l12 -36l-24 -24h-12zM973 272l36 -12v36h-36v-24zM997 500l12 -12h12q0 27 48 48l36 -12v12l12 36l-12 12v12l12 36zM1057 992l48 -12v12l-24 24h-24v-24z" />
<glyph unicode="I" horiz-adv-x="728" d="M40 172q23 55 48 60h72v24h12l-12 12v144h24v72q72 0 72 36h36l48 -36q0 41 60 60l12 -12v-12l-24 -48h12l36 24q0 -48 84 -48l24 -72v-60q-89 0 -96 48q-24 -24 -156 -24l24 -36l60 12l24 -36l60 36l12 -60l-36 -48v-12l12 12h12q0 -60 108 -60v-24h12v12l-12 36l36 24 q75 -24 84 -60q-15 -132 -60 -132h-360l-96 24h-24l-84 -24l-12 12v84zM52 1270v60l48 72l252 -24v12l12 -12l192 24q72 -9 72 -24l12 12h12l24 -24v-84q0 -91 -120 -96l-24 -186l12 -12l-12 -84v-192l12 -120q-65 -24 -168 -24q0 28 -108 60q0 -36 -24 -36l-12 36l12 12v12 q0 30 -84 96v318l-12 120h12q-7 48 -84 48zM160 544v12l12 12h24v-12l-24 -24zM244 448h72v12l-24 24l-48 -12v-24zM340 436q36 0 36 -36h12v36q-24 0 -24 36l-24 -24v-12zM364 172l36 -12l12 12v36h-48v-36zM388 52l24 24v12l-24 -24v-12zM496 412l12 -36h12v36h-24z" />
<glyph unicode="J" horiz-adv-x="1196" d="M40 358v60q0 96 120 96l36 -36l-12 -12v-12l12 -36l-36 -36v-48q0 -36 84 -36q0 -48 144 -96l-12 -12v-36l48 -60l24 24h24l12 -84l-36 -36l-12 12l-12 -12h-12q-312 0 -312 216l-12 -12h-12q-36 0 -36 156zM460 1234q0 132 96 132l348 12l12 -12h12l48 12h24 q156 -9 156 -48v-96q0 -33 -132 -60q0 -36 -36 -36l-12 -36q0 -37 48 -84v-192l12 -72l-12 -36l12 -36q-24 -72 -48 -72h-24l-12 12h-12v-24l12 -36l60 12q24 0 36 -132l-12 -36l12 -36l-12 -12h-24q0 48 -36 48v24l12 12v12l-12 12h-12l-132 -108l12 -12v-12l-12 -60h24v24 h12q132 -9 132 -72q-193 -252 -444 -252l-36 156h12l-12 12v12q100 87 120 216l-24 120h12l-12 12v432l12 48l-12 48v36l60 -12l-24 36l24 72h-36v-12l-60 12h-84q-24 0 -36 72zM640 442l48 -36l12 -12v-12l-24 -24l36 -24h12v12l-12 12v12q24 0 24 48l48 -24l24 36l-12 12 h-12v-24h-12l-36 36v12q48 0 48 36q-24 0 -24 36q0 60 24 60l-12 60h-60l-12 12h-12l-24 -24l12 -12v-84q48 -6 48 -36h-12l-36 12l-24 -36h24v-24h-36v-24zM652 310l24 -24h12v24l-24 24l-12 -12v-12zM700 178q0 -65 60 -96q0 50 60 96q0 41 -84 60l-36 -48v-12zM820 838 l36 -36q72 12 72 36v48l-48 24h-36l24 -36l-24 -24v36l-24 -24v-24z" />
<glyph unicode="K" horiz-adv-x="1448" d="M40 1276l12 84h24l108 -12l12 12l60 -12h36l216 12q168 0 168 -132l-108 -72l-36 36q-48 -18 -48 -36v-24l12 -60h48l12 12h12l12 -12v-36l-12 -12l12 -12l-36 -396l24 -96v-48h-24v-24q48 0 48 -192l-12 -12h-12l-12 12l-36 -72l144 -120v-60q-27 -60 -120 -60l-72 60 l12 12v12h-24v12l-96 -84h-84q-165 0 -228 96v48q0 20 72 48l24 36l-12 60v48h24v-36h24l24 96h-12l12 12v24q-60 52 -60 168v96l-12 48l12 12v12l-12 180l12 168l48 -12l60 12v36q-36 0 -36 72l-72 -24q0 60 -24 60q-75 24 -84 60zM172 64l24 24l-24 24v-48zM208 148 q31 -60 96 -60h12l24 108q0 27 -60 36q-72 -12 -72 -36v-48zM256 1000h24v36h-12zM340 856l72 -60l48 72q-27 0 -36 60h-48q-36 -12 -36 -72zM364 304q18 -48 36 -48v36l-24 24h-12v-12zM364 388l72 -60h12q55 72 84 72v12q-36 0 -36 36q-39 0 -108 48l-24 -72v-36zM400 136 l36 -12v12l-24 24h-12v-24zM592 748q0 38 144 204l144 204v48q-43 0 -72 36l-12 -12h-12l-24 24v72l36 36h312l12 -12l12 12h12l12 -12l84 12h60l36 -36v-60q0 -43 -216 -84l-228 -324q220 -416 396 -636q120 -108 120 -132q-49 -118 -72 -120h-36l-12 12l-12 -12h-12 l-12 12l-264 -36l-108 12l-36 -12q-60 87 -60 144l72 72l-192 336l-36 48l24 24q-60 127 -60 180z" />
<glyph unicode="L" horiz-adv-x="1196" d="M40 133v36h96v24h24q0 -36 108 -36q0 -24 -36 -24v-12q60 0 60 -24l-48 -12v-24l12 12h24l-12 -60l60 12l-12 12v12l60 24l-12 60v48l24 36l-12 48h-12v-24h-12l-12 12h-12l-12 -36h-24v36h-96l-48 -36h-12v24l12 396l-12 276l12 120l-12 60l12 -12h24v12h-24v48l24 48 l48 -36q0 65 72 96v12q-24 0 -24 36l-12 12h-60q-18 0 -36 -48l12 -48v-12h-36v72q-24 0 -24 -48l-12 -12h-36l-24 24v36q0 120 144 120h36l48 -12l48 12q60 0 60 -24l12 12h120l108 12l60 -12v-120l-24 -24l-12 36h-24l-36 -36l12 -12q-36 -12 -36 -72v-300l-12 -72l12 -12 v-12l-12 -60l12 -12l-12 -60v-72l12 -312l-60 -108l12 -12h12l12 12h12l48 -24l84 24v-72l-24 -24v24h-24v-12l12 -12v-12q-39 -28 -108 -36l-12 12l-216 -24l-24 24l-24 -24h-108l-60 -12q-48 55 -48 168zM184 565l12 -60h12l60 48v48h-60l-24 -24v-12zM184 889 q0 -36 48 -36q32 8 60 60l-84 12l-24 -24v-12zM508 25h12l24 24l-12 12h-24v-36zM724 49v96l36 36v-12q240 73 240 204l-12 12v12l24 120h12l132 -48l-24 -204v-12l12 -48l-12 -48v-84q-28 -60 -60 -60l-12 12l-180 -24v12l-12 -12h-60q-64 0 -84 48zM880 85h24l24 24v12 h-12zM916 133q41 0 84 -60h12v36l-48 48h-24z" />
<glyph unicode="M" horiz-adv-x="1508" d="M40 34v12l12 12l-12 12v36l12 12l-12 12v24q0 24 84 36l72 -108v-24q-28 0 -84 -60q-62 0 -72 36zM76 1258v12q0 96 72 96l-12 12v36l132 -36l48 12q0 -24 36 -24l96 12q132 0 132 -84l312 -684l-12 -12l24 -24v-24q-135 -222 -192 -444h-24q-104 74 -144 216 q-120 231 -252 600h12l-12 12v12l12 12v12l-72 60v24h36q0 48 -48 48q0 60 48 60l24 84l-60 48l12 12v36q-72 -84 -84 -144h-48zM112 34h12v48h-12v-48zM196 250l12 12h12l36 -24h36l12 36l-36 36l48 120l-24 24h24v60q-16 108 -108 108v12q27 0 48 84l36 12l108 -156v-252 l-12 -48q0 -60 60 -60q96 -40 96 -60q-9 -132 -36 -132l-72 24l-84 -36h-48l-36 24l-24 -24l-12 12v36h12l36 -12l24 24h12v-24h36l-12 12l12 12v24h-24v12l12 36h-12q-24 0 -24 36l12 36h-12q-108 12 -108 36zM196 322l12 12v12l36 -12v-12h-48zM808 910q117 342 168 372 l-12 12v12q32 80 72 96h84l132 12l72 -24l-24 -48l36 -72h12q0 60 60 60l-24 60h60l24 -24v-108q0 -21 -60 -36l-12 -48l12 -12v-84q0 -36 -72 -36v-12l12 -36h-12l12 -12l-24 -156h-12l-36 24l-12 -12l-12 12v-24l36 -48l12 12h24v-36l-24 -24l-12 12h-12l-36 -48v-12 l24 -24h108l24 -48v-24q-33 -82 -132 -144l24 -60l-36 -24l-36 48l-36 -12l-12 12v12l12 12v12q-24 0 -24 36h-48q0 -36 -24 -36h-12q0 56 -60 96q0 36 -48 84zM920 35v120q0 24 108 48v108h12q24 0 36 -84l36 -12q0 72 60 72l12 -36h12l72 60q15 -60 36 -60l36 12v-60h12 l12 12h12l12 -12v-12l-12 -12l12 -12h-24v-12l96 -96q-24 -48 -72 -48v48h-12q0 -39 -24 -60l-60 12l-96 -12q0 36 -36 36l12 60l-36 24l-24 -24l12 -12q0 -76 -156 -108zM952 862q0 -24 48 -24l12 -48h24l24 24v60q-12 36 -72 36zM1000 154l24 -60l-12 -36l12 -12h12 q0 48 60 48v12l-60 48h-36zM1024 730l12 -36h12v36h36q27 0 36 -60l48 36v12q-36 0 -36 60h-24v12l-72 -36v24h-12v-12l12 -36h-12zM1108 130l36 36v12h-12l-24 -24v-24zM1192 586h48v24l-48 12v-36zM1348 298h48v-12l-12 -12l12 -12v-24h-12q-27 0 -36 60z" />
<glyph unicode="N" horiz-adv-x="1388" d="M40 118q53 36 108 36v96l60 84l-36 12l-24 -24l-12 12v324l-12 108l24 144l-12 12v12q24 132 48 132h24q16 0 48 -108l48 -60q0 -24 -48 -24v-12q72 0 72 -24l-12 -48l12 -12h12l24 24q132 -127 132 -408v-120q0 -60 108 -108v-24l-12 -36l12 -72v-12l-24 -36l-60 12 l-84 -12v12l-12 -12h-108l-192 12l-48 -12q-36 47 -36 132zM64 1270v48q8 36 96 36l12 -12h12l48 12h24l24 -24l-24 -36q0 -31 84 -48v24l-24 36v36l252 24q132 -97 132 -204q36 0 36 -48q48 -36 168 -288q233 -351 324 -564l-12 -12l12 -60v-36l-12 -12l12 -12v-12 q0 -20 -144 -72v-24q48 0 48 -24l-12 -12h-12q-36 0 -36 36h-36q0 -36 -108 -36q0 24 -60 24l-12 60q36 0 36 36l60 -12q57 84 96 84v24l-24 84h-24v-24h-36q0 84 -48 84l-24 -24l-24 24l-12 -84l48 -36v-12h-24l60 -72v-12h-12l-60 48l-24 -24h24v-24l-36 -12l-264 456 l36 36q-72 0 -72 48q-251 445 -324 492q-72 28 -72 48v12l60 -12l36 12v48l-108 -24l-12 12v12l12 12h-60zM256 142q48 0 48 -60l60 -24l48 36v24l-12 36l12 12l-60 24l-60 -36h-12l-12 12h-12v-24zM256 1174l12 -12h12l12 12v36zM268 646l24 -24l60 12v36l-36 36l-36 -24 l12 -36h-24zM316 1138q0 -24 48 -24v-24h24v24l-72 36v-12zM400 1114l36 -12v12l-36 48v-48zM496 922q12 -39 48 -48l24 36l-24 24h-48v-12zM616 562l12 -48h24l24 24q0 27 -60 36v-12zM868 1210q0 168 96 168h156l72 -12l12 12h12l72 -48l60 12q0 -156 -60 -156 q-66 0 -72 -108l12 -72l-12 -48l12 -48l-12 -12v-12l12 -60l-12 -48l12 -48l-12 -156v-12h-12q-178 141 -180 228v72l60 84l-12 12h-36v-36l-24 24v24h12l-12 84v108l-72 24l-48 -12q-24 0 -24 36zM1060 406l24 -24l24 24v12h-48v-12z" />
<glyph unicode="O" horiz-adv-x="1508" d="M40 680l12 12v12l-12 36q40 188 120 372l60 -12h24l24 24l-24 72q163 228 372 228h24l60 -96q0 -57 -132 -132q-45 0 -84 -300l12 -84l-12 -288v-36l12 -84h-12q0 -276 168 -276l24 -96v-24l-72 -48h-12l-60 60l-12 -12v-12l12 -12l-36 -12q-336 72 -336 180 q-81 0 -120 528zM148 752l48 -36l36 48h-24v12l12 12v12l-12 12h-24q0 -29 -36 -60zM196 428q15 -60 36 -60h12v36l-24 24h-24zM340 980l48 -36l12 12v12l-12 12h-48zM388 20h36l-24 24h-12v-24zM436 464h36l-24 24h-12v-24zM760 80q72 72 156 72h48l24 60l-36 36l12 12 l-12 12q24 95 36 600q0 316 -216 360l-12 120q33 60 96 60q417 0 612 -600v-12q-60 -42 -60 -120q36 0 36 -48h24q0 -106 -72 -132l-12 12h-12l-36 -60l72 -72q-28 -85 -96 -168h-12q0 68 -72 96h-36q0 -56 -24 -84v-24q0 -24 72 -36l36 12v-12l-144 -120h-24l-36 24h-12 l-24 -24l12 -12l-120 -72q-168 0 -168 120zM988 1016h24l48 96h-60v-24h-12l12 -12v-12zM1000 428q24 0 48 -72q60 0 60 -24l36 12v48h-12v-24h-36v12l24 36v36l-48 60l-12 -12h-36l-12 12h-12v-12l12 -60zM1060 680l12 -12h36v12l-36 36zM1108 104h24v12l-24 24v-36z M1168 704h36v-12l-24 -36v-12l24 -24q72 0 72 48q-23 55 -48 60h-60v-24zM1312 296h24v36l-24 -24v-12z" />
<glyph unicode="P" horiz-adv-x="1328" d="M40 172q132 42 132 60l12 168v336l-12 48l12 48l-12 12l12 60l-12 204l12 72q-132 30 -132 48v12q0 60 72 144h84l12 -12l12 12h108l96 12l84 -12l84 12l24 -24l-24 -108l12 -12l-24 -516l12 -12l-12 -60v-240l-12 -12l12 -12v-12l-24 -24l-12 12v12h12l-12 36h-12 q-24 0 -36 -72l72 -24l12 12q0 -156 96 -156q-19 -192 -96 -192l-84 12h-84l-288 -12q-64 0 -96 180zM316 316l72 -84q48 18 48 36v48h-24l24 48l-60 12h-24q0 -48 -36 -48v-12zM352 628h48v12h-48v-12zM364 652h12l12 36h-24v-36zM676 615v12l12 72l-12 36h12l36 -12l12 12 h12l36 -12v12l-12 12v12q132 0 132 276l-12 48l12 36l48 -12l36 12q-32 108 -48 108l-60 -36l-144 48l-36 -12l-12 12v36q8 72 36 72l12 -12h12l24 60h36l12 -12l12 12h60l48 -12l48 12q31 -77 60 -84h36q24 0 24 36l12 12h12l24 -24q24 0 24 -60q48 0 48 -24v-48l-12 -12 q26 -84 72 -84v-48q0 -48 -84 -48l12 -12v-12l-24 -24l24 -48l-12 -12h-12q-36 51 -36 120l-72 -36q0 -96 96 -96l12 12l12 -12v-12l12 12h12l36 -36v-24l-48 -72h24v-36q-33 -60 -96 -60l12 -12v-12q-111 -96 -276 -96v12l-120 -24q-48 0 -84 84zM796 735l24 -24v36h-24 v-12z" />
<glyph unicode="Q" horiz-adv-x="1508" d="M40 572v12q60 42 60 120q-36 0 -36 48h-24q0 106 72 132l12 -12h12l36 60l-72 72q28 85 96 168h12q0 -68 72 -96h36q0 56 24 84v24q0 24 -72 36l-36 -12v12l144 120h24l36 -24h12l24 24l-12 12l120 72q168 0 168 -120q-72 -72 -156 -72h-48l-24 -60l36 -36l-12 -12 l12 -12q-24 -95 -36 -600q0 -316 216 -360l12 -120q-33 -60 -96 -60q-417 0 -612 600zM172 1052l24 24v12h-24v-36zM232 716q23 -55 48 -60h60v24h-36v12l24 36v12l-24 24q-72 0 -72 -48zM364 992h12v24h36v-12l-24 -36v-36l48 -60l12 12h36l12 -12h12v12l-12 60l12 12 q-24 0 -48 72q-60 0 -60 24l-36 -12v-48zM376 1268l24 -24v36h-24v-12zM400 704l36 -36l12 36l-12 12h-36v-12zM448 272h60v24h12l-12 12v12l12 48h-24zM808 56q0 57 132 132q45 0 84 300l-12 84l12 288v36l-12 84h12q0 276 -168 276l-24 96v24l72 48h12l60 -60l12 12v12 l-12 12l36 12q336 -72 336 -180q81 0 120 -528l-12 -12v-12l12 -36q-40 -188 -120 -372l-60 12h-24l-24 -24l24 -72q-163 -228 -372 -228h-24zM904 -160q65 84 132 84h12l36 -24l132 12h12v-24h-24l24 -24q54 84 132 84l12 -12v-12l-12 -12l12 -12l12 12h12l24 -24v-12 q-79 -252 -192 -252q-193 39 -324 216zM1036 920l24 -24h12v24h-36zM1084 1364l24 -24h12v24h-36zM1108 416l12 -12h48l-48 36l-12 -12v-12zM1216 -184v-24l36 12l-24 24zM1264 980l24 -24h24q-15 60 -36 60h-12v-36zM1276 620h24v-12l-12 -12v-12l12 -12h24q0 29 36 60 l-48 36zM1288 -88l12 -12l-12 -12v-36h36l-12 60h-24z" />
<glyph unicode="R" horiz-adv-x="1371" d="M40 157q132 42 132 60q0 84 24 84v-24h24l24 24l12 -12h12q24 0 24 48q60 0 60 24l12 96q-108 -104 -108 -132h-12l-60 48v12l12 12v12l-12 12h-12q9 72 24 72l-12 60v168l-12 48l12 48l-12 12l12 60l-12 204l12 72q-132 30 -132 48v12q0 60 72 144h84l12 -12l12 12h144 l72 12l60 -12l96 12l24 -24l-24 -108l12 -12l-24 -516l12 -12v-12q-26 -132 -72 -132q-36 0 -36 -24h24v-24h-24l-12 12h-12q-60 -66 -60 -120q-36 0 -36 -24q48 -12 48 -48l84 12v-12l48 24l36 -12v-72q0 -94 96 -108v-12q0 -165 -108 -180l-72 12h-60l-12 84l12 12l-60 12 q0 -27 -48 -48h-24l-12 12l-12 -12h-24l-12 12h-12l12 12v36h-24v12l-36 -12l12 -12v-24h-24l12 -12v-12l-12 -12h-12l-12 36h-72q-31 0 -48 84zM88 1v12l24 24h12v-36h-36zM244 1237l24 -24l12 12l-12 48l-24 -24v-12zM671 587v12l12 72l-12 36q216 26 216 180l12 120 l-12 48l12 36q0 93 -168 120l-36 -12l-12 12v12l12 156h36l72 -12l12 12h12l108 -24l36 12q228 -50 228 -120q84 -120 84 -204v-84q0 -294 -180 -384q-80 -48 -180 -60v-12h156l12 -12l12 12h12l108 -276q75 0 108 -60v-120q-12 -36 -72 -36h-204l-180 -12l-12 12v36l12 12 q-48 72 -48 108l12 12v12q-55 31 -156 384zM1180 733l12 -12h12v36z" />
<glyph unicode="S" horiz-adv-x="1196" d="M40 109v240q0 27 60 36l24 -24q12 36 72 36q36 -12 36 -72v-36q51 0 192 -120q118 -46 120 -72v-72q0 -29 -120 -36l-36 24l-60 -12l-168 48q-28 -72 -48 -72h-36q-36 0 -36 132zM64 973v36q0 236 288 360l12 -48h36l24 24l-12 12l96 24l12 -12l-12 -12v-24l24 -24h12v48 h12l24 -24v-72l-132 -60q-60 -63 -60 -132q0 -96 336 -156q176 -60 288 -204q144 -125 144 -312q0 -124 -144 -300q-168 -132 -240 -132h-96l-48 48v72l168 96q0 36 24 36h24l-12 -12v-12h36v24h-24v12h36l12 -36h12q65 0 84 48v12l-12 -12h-24v12l12 36l-12 12h-36l-72 -24 q0 156 -168 156l-348 96q-264 145 -264 444zM136 313l24 -36l36 12v-24h24v24l-84 36v-12zM592 709l12 -36q36 9 60 84l-12 12q-48 0 -48 -60h-12zM652 1237q0 132 60 132l60 12v-12l-24 -60l12 -36h12l36 24l36 -12v12l-24 60l12 12h12q0 -36 48 -36l12 -72h12q0 36 84 36 q0 65 60 84q72 -12 72 -36v-48q0 -88 -36 -96h-24l-12 12h-12l-48 -96q24 0 24 -36h12q0 27 84 96l12 -12v-12q-31 0 -48 -84h12l36 12l12 -12v-12q-50 -84 -72 -84h-12q-218 240 -360 240q-48 0 -48 24zM772 625h36v-12l-24 -36h12q25 5 48 60l-36 24h-12l-24 -24v-12z M784 709h24v36h-24v-36z" />
<glyph unicode="T" horiz-adv-x="1292" d="M40 913v108l12 48l-12 36l24 96l-12 72v48q0 24 132 36l72 -24h96l60 12l12 -12v-36q0 -93 -156 -204l-108 -216q-120 12 -120 36zM364 109v24q104 72 168 72v36h-36v36l-12 48l12 12v12l-12 168v12l12 60l-12 72v204l-12 48l24 168l-12 12q0 252 84 252l132 24h132 l24 -24v-12l-12 -12l24 -108v-24h-12l12 -120v-48l-12 -348l12 -12v-12l-12 -48v-60l12 -72l-12 -12v-12l24 -204l-12 -36q132 -27 132 -48q-20 -156 -60 -156l-264 -24l-12 12h-12l-48 -12q-108 8 -108 24l-12 -12h-48q-72 63 -72 120zM508 325h36v12l-24 24l-12 -12v-24z M508 577q24 0 24 -36h12v24q24 0 36 -72h24v-12l12 12h12l12 -12l12 12h12q36 0 36 -36l48 24v36h-48v12q29 72 72 72v60q-36 0 -36 24h24v12h-24l-36 -36l-12 12h-12v-36l12 -84h-24l-12 60h-12q0 -48 -24 -48l12 -12v-36h-12l-12 12h-12l12 60v24h-24l12 -12v-24h-12 l-36 24l-36 -12v-12zM556 349h24v12l-24 24v-36zM580 265q9 -63 72 -84h36q0 48 36 48q-9 84 -84 84v36h-36l12 -60zM760 973l48 -12v72h-24q0 -36 -24 -36v-24zM916 1225v96l24 24h24l12 -12l12 12h60q84 -4 84 -24l60 12h36l12 -12h12l-24 -396q-76 0 -120 -48l-60 168z " />
<glyph unicode="U" horiz-adv-x="1376" d="M40 1342l48 48h72l240 -24l36 12l36 -12v-12l-48 -60l12 -36l-12 -12h12l36 24q0 -48 24 -48q20 0 48 72l-60 60l36 24h12l12 -12l12 12q132 -9 132 -36q0 -134 -120 -168l-24 -108l12 -36l-12 -144l12 -132l-12 -36l12 -108v-216l-72 -84q0 -72 72 -72v-12l12 12h12 l108 -60l12 12l12 -12v-132q-12 -36 -72 -36l-12 12h-12l-24 -24q-348 56 -348 168q-99 0 -108 288q0 60 24 60l-24 84h12l-12 12v24h12l-12 180v360q0 20 -84 48zM208 586h36l-36 36v-36zM232 550l12 -12h12l-12 -12v-36l72 -12l36 72l-36 36q-84 -12 -84 -36zM292 610h36 v12l-36 12v-24zM328 910q48 0 48 -48h12q32 0 48 72l-48 36l-36 -12l-12 12zM796 130v48h12l12 -12h12l-12 12v12l96 60l12 -12h12l-12 -12v-12l24 -24h12v48h12v-24h24l24 24v24q-36 0 -36 36h-12v-36h-24l48 144v216l12 120l-24 360h12q0 108 -144 108l-24 24l24 144 l192 -24l120 12h36q132 0 132 -36v-48q0 -63 -36 -108l-60 12q-60 0 -60 -204l-12 -12v-12l24 -564q-80 -324 -168 -324l-120 -60h-60q-33 0 -48 120zM892 106h12l60 12l12 -12l12 12v12h-96v-24z" />
<glyph unicode="V" horiz-adv-x="1162" d="M-79 1256v12l12 -12h12l12 108l-12 12l12 12h36l84 -12l108 12h48l108 -12l120 12h72l36 -24q-12 -144 -96 -144q0 -129 312 -972q-48 -252 -120 -252l-12 12v12l-216 -24q-84 41 -84 60l12 12h12l12 -12q4 41 62 68q35 0 72 96l-108 180l-12 -12h-12l-36 24 q19 -10 19 -32q0 -23 -21 -60l-48 -24h-12q-48 131 -48 192l12 12h-24v36h24l12 -12h12v24q-36 0 -36 24l-12 -12h-24l-180 648q-108 17 -108 48zM245 608l48 -24l36 36v24h-24v12l-12 -12h-12l-36 12v-48zM317 692l48 -12l-36 48l-12 -12v-24zM329 584h24v24h12l24 -24 l36 12v12l-48 12l12 36l-12 12h-12zM701 572l24 24h12v-12l-12 -36zM725 536v12l48 24h12l12 -12h12v12l-12 12l12 12v72l-12 -12q-60 15 -60 36q156 426 156 516q-156 15 -156 120v36l72 36q28 -24 144 -24v-12l12 12h144l48 12l36 -24l12 12h12q48 -18 48 -36v-72 q0 -30 -132 -60v36l-24 -24h12q-147 -468 -192 -468l12 -36q0 -72 -48 -72l12 -60q-53 -180 -120 -180z" />
<glyph unicode="W" horiz-adv-x="1497" d="M-68 1366l24 24l12 -12l108 36l156 -24l12 12h12l36 -12l192 12h84q36 -12 36 -72v-60q0 -18 -120 -60v-12q0 -191 204 -780l12 -12v-84q-60 -73 -84 -276l-48 -36h-84l-144 -12q-57 0 -288 1212h-84q-36 0 -36 156zM292 1174l12 -12h12l24 36h-24zM316 1102h36v24 l-36 -12v-12zM364 694l12 -36h36v12l-36 36h-12v-12zM448 166h12l24 24l-12 12h-12l-12 -12v-24zM460 1054h24l-12 36h-12v-36zM592 910v24q44 252 72 252l-12 12v12q21 192 120 192h24q156 0 156 -36v-36l-24 -36v-24q56 0 96 -240h-24v-24l12 12h12l72 -252l-24 -24v-24 l12 12h12q48 -48 60 -180l96 -192q-26 -324 -96 -324q0 -24 -48 -24l-12 12l-60 -12h-108q-48 20 -96 144l24 24q-53 0 -228 648q-24 3 -36 84zM676 1186h12l36 36v12h-12q-18 0 -36 -48zM688 1138l12 -12h12v48h24v-24h12v24l-12 12h-12q-18 0 -36 -48zM736 646h12l60 48 l-36 36l12 12v12h-12l-36 -12v-24l24 -36l-24 -24v-12zM796 1066h12l24 24h-12zM940 418h36v24h-36v-24zM964 850l12 -12h12q0 24 48 24l-24 24h-12zM1060 1246v60q0 108 60 108l108 -12l36 12l300 -24l48 12l12 -12q0 -180 -108 -180h-108l24 -96q-69 -260 -96 -264h-24 v-48h12l12 12h12v-24l-24 -24l-36 12v-24q48 -6 48 -36l-48 -180v-36h-12q-44 12 -120 276l-24 36l36 120l12 -12h12l12 12h12l36 -12l12 12l-12 36h-24l-48 -36v48l24 36v60h24q0 -48 96 -48v48h-36v12l24 36v12l-24 24q-36 0 -36 -36l-12 -12h-12v12l12 108q-36 0 -36 48 l-48 24l-12 -60h-84zM1252 1222l12 12h12l12 -12h12v24l12 12l-12 12l-36 12v-12zM1252 1330h48l12 48h-48zM1288 886l24 -24h12l-12 36h-24v-12zM1348 1222h24l12 48q-18 0 -36 -48z" />
<glyph unicode="X" horiz-adv-x="1153" d="M-28 145q264 76 264 204l108 180q27 0 108 -180q0 -68 -72 -168q132 -43 132 -72q-28 -84 -48 -84h-48l-120 -12v12l-96 -24l-12 12h-12l-12 -12h-12q-168 0 -168 48zM-4 1249v108q0 24 72 48q42 -21 300 -36l144 24q72 -123 72 -168l-12 -84q63 0 84 -96q28 0 84 -168 h-36l24 -84h12q0 36 24 36l180 -360l-12 -12h-12l-12 12h-12q0 -32 -36 -72v-48l12 12h24l36 -24l12 12l12 -12v-12l-12 -12l48 -12l12 12h24l12 -48l-12 -12h-12l-12 12v-36l12 12q156 -40 156 -72v-96l-48 -24h-48l-24 84l-12 -12h-12l-24 24h-12q0 -24 -108 -72h-12 l-24 24q-36 0 -36 -48l-36 -12l12 -12v-12l-12 -12h-36v24q36 0 36 60h-12l-12 12h-12l-36 -60h-12q-69 0 -132 228q-149 305 -168 420l12 12q-48 0 -48 24l12 12h12l-12 36l-12 -12h-24q-154 377 -192 420q-144 38 -144 72zM80 97h36v24h-12zM128 133l84 -48l12 12v12 l-60 48h-12zM224 1189l24 -48l48 12v12q-36 0 -36 48h-24v-24h-12zM236 37h12l12 12v36h-12zM356 1141l36 -36l12 12v12l-12 12v12zM404 1177l24 -24l12 12v12l-12 12h-24v-12zM440 745h48l-48 36v-36zM452 805l24 -24h12v36zM524 745l72 -12v36q0 21 -60 36v-12l12 -12v-12 zM560 385l12 12h12v-12l-12 -12l12 -36h24l36 72l-48 36h-12l-24 -48v-12zM608 301l24 -24h12v24h-36zM620 769l36 -12v24h-36v-12zM632 241h12l36 12v12h-48v-24zM680 685l36 36l-36 12v-48zM692 1069v12q0 21 60 36q0 35 72 96h12v-36l24 24v12q-36 0 -36 36l-36 12 l-36 -36l-36 48v24l60 -12l-36 48l36 48h60l36 -12l60 12h240l24 -24q0 -60 -24 -60l12 -12v-12l-24 -24h-12v24h-48v-24h-12q-54 48 -84 48l-12 -12h-12l-36 12v-12l-24 -24l-12 36h-60l36 -48l-12 -36h36v-12l-24 -48q72 -9 72 -24l-132 -180h-24q-60 35 -60 108l-12 -12 h-12zM800 301h12l12 12h12v-12l36 12v12l-48 12zM800 1069l24 -24h12v48h-12zM896 241l60 -12l24 36l-12 12v12q-72 -16 -72 -48zM968 1261l60 24v-12l-12 -36h24v-12l-24 -24zM1076 1357l24 -24v36h-24v-12zM1136 1321h36v24l-24 24h-12v-48z" />
<glyph unicode="Y" horiz-adv-x="1115" d="M-103 1240q32 108 48 108h12l36 -24q0 27 60 36v-12q0 -15 72 -24l12 48l60 -12h96l12 -12l12 12h72q211 -367 300 -480l96 -132l-12 -48l12 -348v-132l72 -24l12 12h12q48 -18 48 -36v-12l-48 -108l12 -36q-32 -24 -180 -36q-72 64 -72 96h-12q0 -35 -84 -84h-60v24 l84 24v36l-12 -12h-36q0 30 48 36l36 -12v12l-48 84l-36 -12l12 -12v-12h-24v36l-36 -12l-36 12v-12l-24 -24l-60 60q24 0 24 72h12l-12 12v108l12 12l-12 12l12 36l-12 168v24l-300 528h-36q-144 21 -144 60zM257 88v36h24v-12zM293 88v12l36 -36h-12zM329 148v48h24v-48 h-24zM401 -8v24l12 -12h12v12l-12 12v12h24l12 -48h-48zM413 436l36 -36h12l-12 48zM437 340h48l-12 12v12l-36 -12v-12zM437 484l24 -24h12v24l-36 12v-12zM497 472h24l24 48h-24zM557 256l36 -36h12l-36 36h-12zM593 424l24 -24h12l-12 72l-24 -24v-24zM641 436l48 12v24 h-48v-36zM754 945v48q60 58 60 96h24l12 -12h12q0 24 36 24v12l-24 36v24l12 12v12l-60 -12h-24l-24 24v24q24 0 24 36l60 -12l24 24q48 -6 48 -36h36v24h12l12 -12h12l12 12h12l12 -12h12l84 24l12 -12v12l-12 36h12q60 -15 60 -36v-36l-24 -24l-12 12h-12q-48 0 -96 -96 l-60 12h-12v-48l36 -12l-156 -228q-69 0 -120 84zM838 933h48v36h-48v-36zM934 1317l12 12h36v-12l-24 -24z" />
<glyph unicode="Z" horiz-adv-x="1304" d="M40 64v48q21 111 276 480h12q0 -72 -48 -72l48 -72l-12 -12h-12l-24 24h-12l-12 -60l12 12h12l12 -12h12l72 48l24 -24q-48 -18 -48 -36v-12l36 -12q-12 -52 -60 -60q-96 -37 -96 -60v-12h12q0 36 60 36l12 -12v-12l-12 -12l24 -48q108 17 108 48v24h-24v12l-12 -12h-12 l-12 12h-12q0 -36 -24 -36h-12v36l24 24l12 -12h12l36 60l-12 12q36 96 72 96v12l-36 60l12 36h-24l-12 -12h-12l-12 12v-12l12 -36h-12q-24 0 -36 84l60 24v12l-48 60l396 612h24l-12 60l48 36h24l36 -24l12 12q21 -84 48 -84q84 12 84 36l-36 36h-12v24h120q36 0 36 -60 l36 24v-48q24 0 24 36h24l24 -24l24 -60q-550 -742 -720 -1116l-108 -144h-156l-48 12l-144 -24zM64 976l12 204l-12 12v12q24 180 60 180l36 -24l60 12h12l12 -12q68 24 192 24l72 -12l48 12l12 -36l36 12l-12 12v24h12l12 -12h12l36 12l12 -12v-36q0 -85 -156 -108 q-109 -42 -252 -204l-60 24l-12 -12v-24h48q-40 -144 -84 -144h-24q-72 48 -72 96zM172 268l12 -36h12v36h-24zM280 340h24l24 24l-36 24h-12v-48zM328 640v12h24l24 -24l-12 -12h-12zM592 40v36l48 60l-12 12v12l36 36h24l12 -12q240 0 384 312l108 48l24 -36 q0 -86 -48 -96l-48 12h-12v-12l24 -72l12 12h60v-72l-12 -12l12 -12v-84l-12 -60h-12l-24 24l-12 -12h-24q0 36 -24 36v-12l12 -48l-36 -24v24h-48v-12q0 -24 48 -24v-24l-48 -12l-36 12l-12 -12v24h-12v-24h-24l12 60q-36 0 -36 -72l-24 24l-228 -24l-24 24l-36 -12z M1000 1192l24 -24h12l-24 24h-12zM1072 184h48v12l-12 12v12l36 48h-36q-36 -12 -36 -72v-12z" />
<glyph unicode="[" />
<glyph unicode="\" />
<glyph unicode="]" />
<glyph unicode="^" />
<glyph unicode="_" />
<glyph unicode="`" />
<glyph unicode="a" horiz-adv-x="1175" d="M-116 127l12 48h24l60 -108v-12l-60 -12q-36 44 -36 84zM16 7v36h12l36 -12v12l36 36l24 -24h12v12q-36 0 -36 60l-36 12v12q0 24 36 24v24h-60v24l48 24l-12 12v12l96 240h12l12 -12h12v36h-24v12q48 72 48 108h12l48 -48l12 12l60 -12h12l24 72l-12 48l24 48 q-21 0 -36 60q-60 0 -60 36v48l48 24q48 0 120 -252q-24 0 -84 -168h120q96 0 96 -168l-48 -24l-216 -12q0 24 36 24q0 85 -132 192v-24l24 -36l-24 -24l96 -144l-48 -108q132 -39 132 -72v-36q-45 -96 -84 -96l-120 12l-36 -12l-108 12l-60 -12zM256 79l36 -48l60 24 q-19 60 -72 60v-12zM256 1267v12l12 48l-12 12v12q17 60 84 60h216l12 -12l12 12q179 0 228 -108v-12l-36 -48h-12q0 72 -36 72h-60l-12 -48l48 -72v-12q-60 0 -60 -24l-12 -36h12q108 0 132 -108l12 -12h12q0 72 60 72v-12q56 -53 120 -348q20 0 132 -372v-12l-12 12 q-24 0 -24 60l-48 12q-48 -18 -48 -36q0 -40 36 -84q0 -24 -48 -24l-12 -60h12q108 -24 108 -48v-60l60 -12l-12 12v12l36 36h12l12 -36l12 12h24l12 -12h12l24 24h24q0 -108 -120 -108l-12 60l-60 -60l-96 12q0 -48 -324 -48q-60 62 -60 144q108 58 108 84l-204 540 l-156 420q0 42 -108 84zM268 283l24 -24v36h-24v-12zM280 1339l36 -12v12l-12 12h-24v-12zM688 955l36 -48l-12 -36v-12h12q0 36 48 36v36l-48 24h-36zM748 547l48 -48l24 24l-24 48zM772 775l36 -12v36h24v-36l36 36h12v24l-84 36l-24 -60v-24zM796 943h24l12 36h-12 l-24 -24v-12zM808 895l12 -36h24v12l-24 24h-12z" />
<glyph unicode="b" horiz-adv-x="1292" d="M40 1303q4 64 60 108l60 -12h48q360 0 360 -60l12 -84l-12 -60l12 -12l-12 -60v-108l12 -36l-12 -60v-360q0 -24 -48 -24l48 -96v-84h-48l-36 24l-12 -12l12 -12v-24l-12 -60h12l60 48h24v-12l24 -156q0 -132 -132 -132v12l-192 -36q-216 0 -216 96l12 12v12l-12 48 q84 12 84 84l-12 72l12 12l-12 12v336l12 12l-12 36l12 456zM88 91l24 -24h24l-24 24h-24zM148 487l60 -12h24l-12 60h-12l-60 -12v-36zM172 1147l12 12h12l36 -24l24 24l-72 24l-12 -12v-24zM400 187l48 -12l12 12v36l-36 36h-24v-72zM400 799h24l12 12h12l-12 48h-24z M472 415l24 -24l36 12v12q-48 0 -48 36h-12v-36zM652 1255v108l24 24h36l48 -12l48 12l12 -12l60 12h72q222 0 300 -360q0 -160 -168 -312v-12q37 0 84 -72l-12 -12q72 0 72 -84v-96l-12 -48l12 -48l-24 -24q-72 9 -72 24l12 36h-36v108h-12q-36 0 -36 -60l-72 -12l-24 24 h-12q0 -48 -60 -48l24 -36v-12l-48 -36l-36 12l12 168q0 105 -168 120v84l-12 84l36 24l12 -12h12q120 0 120 252v36q0 144 -84 144q-108 12 -108 36zM664 43v84l48 48h84l24 84v36h12q48 -10 48 -96l60 48l-24 36v12l48 72l-12 12h-12l12 36q24 0 36 -72l-24 -24v-12h36 q0 36 36 36v60h24v-24l12 12h12l36 -36l-24 -36l12 -12v-24q-12 -36 -72 -36v-36l108 -24v-12q-24 0 -24 -60q-93 -108 -264 -108l-48 12l-48 -12q-96 12 -96 36zM868 535q0 -36 48 -36l36 12q0 62 -36 72h-12l-36 -36v-12zM916 1159q12 -48 60 -48l12 12v60h-36zM964 631 l12 -84l48 12l-24 72h-36zM1012 259h24v12l-24 24v-36zM1060 811l12 -12h24v48zM1156 367h12l36 12v24h-36z" />
<glyph unicode="c" horiz-adv-x="1292" d="M40 607v192q0 239 204 468l36 24h12l-12 -48l12 -36l-12 -36l108 -192l-48 -36q36 0 36 -24l-12 -12h12l36 24l36 -12v60h-24v24l24 24q24 -22 24 -120l48 -60l-12 -384q0 -252 84 -252q0 -27 120 -60v-60l-12 -12l12 -12v-48l-12 -12v-12q-253 0 -408 144 q-168 114 -240 384zM328 571l12 -12h12l12 36h-12zM388 535l12 -12h12v48h-12zM388 847h12l24 24h-12zM484 1339l48 -48q36 9 48 48l-36 24l-12 -12h-12l-36 12v24h96l120 12l24 -36v-12l-12 -48l12 -48l-168 -84q-56 72 -72 168zM784 1279q0 96 84 96q216 -7 216 -72h12 l84 72h48l24 -24v-24h-12l12 -84v-264q0 -96 -48 -96l-36 12v-12q0 -48 -60 -48l-72 180l-120 132h24l12 -12l48 24l24 -24l12 12l12 -12v12l-12 12v12h24v72l-36 -24l-48 48q-57 0 -96 -72h-12q-73 38 -84 84zM808 103q0 77 156 132q96 96 144 276l60 12v-12l-24 -36h24 l36 24l24 -24l-12 -12l12 -12v-12q-40 -252 -144 -360q-124 -82 -240 -96q-36 62 -36 120z" />
<glyph unicode="d" horiz-adv-x="1378" d="M40 1210v24q0 47 72 144l36 -12l48 12l96 -12l96 24l84 -24l48 12l36 -36v-156l12 -36l-12 -60v-420l-12 -48l12 -12v-12l-12 -12v-12l12 -108v-12l-12 -12l12 -12v-60l12 -120h-12l12 -12v-108h-24l-24 24l12 12l-12 12v12l24 36v12h-12l-60 -12v-12l12 -48l-24 -36 l12 -12v-12l-12 -72l48 12l36 -12v-12l-24 -24q-60 0 -60 24q-31 -26 -288 -36v12q0 24 36 24l12 12v12l-132 108q0 21 60 36v24l-12 192l12 12v12l-12 12l12 120v60l-12 60h12l-12 12v12l12 12l-12 12v12l12 96l-12 144l12 216l-12 12h-24l-60 -12zM64 10q0 24 84 48v-12 q-15 -60 -36 -60h-48v24zM160 358h36v24h-36v-24zM184 322h36v36zM630 112q288 169 288 360v228l12 12l-12 12v204q-25 264 -216 264q-72 17 -72 60l12 12v12l-12 48q64 48 216 48q84 0 84 -72h12q24 0 24 36q134 0 348 -240l24 -108h-12l12 -12v-12q0 -60 -60 -72 q0 -60 -24 -60l-12 12v-24l60 -72q-49 -16 -72 -60v-12l84 -48l-24 -108l24 -24l-12 -12v-12l-12 12h-36v-60l24 -36l-24 -24h-12q-24 0 -24 36l-12 12h-12l-24 -24l-12 12v12l12 12v12q-24 0 -24 36h-60l12 -12v-12l-12 -12h-24q0 72 -36 72h-60l-12 -48l48 -72v-12 q-60 0 -60 -24l-12 -36h12q108 0 132 -108l12 -12h12q0 72 60 72l12 -12v-12l-12 -12v-12l96 48l12 -12v-12q-92 -121 -168 -156h-24q0 44 -48 60h-36q18 -48 36 -48q0 -95 -276 -132q-120 0 -120 144zM942 856q0 -24 48 -24l12 -48h24l24 24v60q-12 36 -72 36zM1014 724 l12 -36h12v36h36q27 0 36 -60q48 18 48 36v12q-36 0 -36 60h-24v12l-72 -36v24h-12v-12l12 -36h-12zM1038 64v24h36l-24 -24h-12zM1098 136h24l12 36h-12l-24 -24v-12zM1170 580h60v24l-48 12z" />
<glyph unicode="e" horiz-adv-x="1172" d="M40 108v12q40 0 84 36l-12 144v12l12 108l-24 108l12 180v12h24v12l-36 48l12 324h12l72 -48h12l12 84v12h-72v-24l-24 24v84h-24v12l-12 -12h-24q-24 0 -24 36l60 132l84 -12l372 12l36 -144l-24 -264l24 -216h144l72 12l156 -36v-48q0 -26 -132 -60v-24l24 -36v-12h-24 l-12 12l-12 -12l-60 12h-144l-12 -12h-12v-24h12l-12 -180v-72l12 -96q-12 -214 -84 -228l-60 12h-108q-24 0 -24 36h-12q0 -48 -72 -48q0 60 -24 60h-12v-12h24v-12l-36 -36q-144 0 -144 132zM148 612l36 -24h36l24 24v60l-60 12h-12zM256 192h60v12h-60v-12zM256 252 l24 -24q0 24 36 24l-24 24l-36 -12v-12zM352 828h24v24h12l12 -12l48 36q-48 18 -48 36l12 12v12h-12l-48 -24l12 -12l-12 -12v-60zM388 396h72l24 24v36l-36 36h-24q-36 -12 -36 -72v-24zM484 1152l36 -36h36l-12 72h-36l-24 -24v-12zM520 624l60 -12l36 12v84h-72l-24 -48 v-36zM628 1248v12q24 24 24 108l84 24l12 -12l180 12h84l12 -12l36 12q72 0 72 -228q-9 -69 -72 -132v-24h36v-24l-96 -36h-12q-16 0 -60 168l-12 12q0 48 -276 108zM652 120q248 93 312 228h12l12 -12v12l-24 36l60 36h36l12 -48h36l-12 12v24h12l24 -24v-156l-12 -108 l12 -84l-36 -24h-84l-96 12q-196 -16 -228 -48q-27 0 -36 144zM880 204h36v24h-12zM892 180l36 -48l12 12v48z" />
<glyph unicode="f" horiz-adv-x="1232" d="M40 1234q62 129 132 156l216 -36l96 12l48 -12l48 12l36 -48v-540l60 -12h60l60 12v-12l60 24q144 0 144 -60l12 -48q0 -132 -132 -132h-228q-24 0 -24 -36l-12 -312h-12q19 -60 84 -60v-12q-60 0 -60 -96q60 -9 60 -36q0 -24 -144 -36l-12 12v24l72 60l12 48v48h-12 l-36 -96v-12h-24l-12 60l-36 -24h-12l-12 12h-12v-12l12 -36q-24 0 -24 36l-12 -12h-24l-24 24l12 36h-12q-92 -15 -132 -120h-12l-24 24l-12 -12h-48q0 24 36 24l-36 36q0 -36 -24 -36h-12q0 48 -36 48l-12 48q93 33 108 72v36l-12 48l24 132l-12 624v132h-12l-84 -12z M244 -2h36v-24h-12zM280 22v12l48 -48l-12 -12h-12zM292 934l24 -72l72 24v24l12 12l-24 24l-12 -12l-60 12h-12v-12zM316 1270h12l24 24h-12zM352 10h12l12 -12h12l12 12v-36h-12l-36 12v24zM436 -14l12 36h12q0 -36 24 -36q0 60 24 60h12v-12l-12 -36l12 -12l-12 -12h-72 v12zM676 1234v48l24 36l-12 12v12l120 24q228 0 228 -36l-36 -36v-24h24v24h12l12 -12h12l12 12v36h-24v24h60q84 0 84 -84l-12 -12l12 -60v-156q-41 0 -144 -72q-73 228 -252 228l-108 24z" />
<glyph unicode="g" horiz-adv-x="1424" d="M40 610l12 12h48l24 -24l60 12l12 -12h12l-12 -12v-24l36 12l-12 12v12l12 12h24v-12l120 12h72l84 -12l12 -180v-72q56 -240 240 -240q48 0 48 -96q0 -32 -84 -72h-12l-60 12l-12 -12l-24 24h-36l-36 -24h-60q-276 110 -276 204q-84 79 -84 120l12 12h12l24 -24h12 q0 36 -84 36q-84 180 -84 324zM64 790v12l12 12h12l12 -12v-12l-12 -12h-12zM88 874h24l48 -12l36 12v-48q-24 0 -24 -36h-12zM124 994q17 84 48 84h12v-24h72l60 12l-24 48h-12l-36 -24l-24 36q40 55 120 96l36 -12l-12 12v24q161 120 360 120l36 12l24 -36v-48 q-15 -39 -216 -156q-20 -180 -36 -180l-48 -12h-60q0 36 -24 36h-84l-36 -36l12 -48l12 12h24q24 0 24 -36h24v24h24v-48q-60 0 -60 -96l-36 -24q-48 48 -84 48v24h96v36q0 24 -48 24l-12 72h-24q0 -60 -24 -60v96q-84 0 -84 24zM352 766v48h12l24 -24v-48h-12zM376 1066 l24 -24h96v48l-36 12l-12 -12h-36l-12 12h-12l-12 -12v-24zM436 862v24h36v-12l-24 -24zM484 1198l24 -24l36 24l24 -24h12v24l12 12l-24 24h-12l-12 -12h-12l-48 12v-36zM496 790v12l12 12v12l-12 48h36v-72l-24 -24zM808 562v48l12 12v12l228 -24l36 12l12 -12l12 36 l-12 48l12 12v12l60 -12h120l48 12l48 -36l-12 -72l12 -12v-12l-12 -36l12 -36l-24 -120l12 -12v-360q0 -24 -36 -24q-25 0 -132 108l-36 12q-195 -120 -252 -120l-36 108q49 85 132 156l-12 12v60l12 12l-12 12l12 48q0 132 -84 132h-96zM856 1270v72q8 36 96 36l48 -12 l48 12l168 -48h24l60 48h12q27 0 48 -120h-12l12 -12v-12l-12 -72l12 -12q-12 -252 -108 -252l-36 -24q-124 300 -216 300q-124 48 -144 96zM1300 310l12 -12h12l24 48h-12z" />
<glyph unicode="h" horiz-adv-x="1501" d="M40 95l96 72l12 60l-12 12v12l12 12v36h-12l24 372l-12 108l12 96l-12 12v12q16 60 60 60v12q0 24 -48 24l12 144q0 24 -36 24l-60 -12l-12 36q12 180 48 180l60 -72q52 12 60 60l60 12h204q24 0 24 -36h12q0 36 36 36l12 -12h12l48 12l24 -36l-12 -60l12 -36 q0 -60 -84 -60q0 -72 -24 -72l12 -12l-12 -60v-36l12 -12v-12l-24 -24v-12h24v-120h-24v-24l12 12l12 -12h269l48 -48l-12 -60l12 -96l-12 -12h-60l-221 -12v24l-36 -36v-12l12 12h24v-24l-12 -12l12 -12v-72h-12q-48 0 -48 72h-12q0 -60 -24 -60v-24l36 -12l12 12 q0 -24 48 -24v-24q0 -24 -36 -24v-12l36 -60q0 -74 -72 -120v-24l132 24l36 -36q0 -102 -72 -144h-72l-192 -36l-252 36l-36 -12q-24 47 -24 132zM148 1331v24h12l24 -24l-12 -12h-12zM160 107h24v24q24 0 24 -36h12q24 0 24 36q-23 55 -48 60h-12l-24 -24v-60zM280 1019h12 l12 36h-24v-36zM424 971l84 -36v12l-12 72h-12v-36l-60 12v-24zM436 1175l12 -36h60v12h-24v12l24 36v12l-48 12zM472 287h12l24 24l-12 12h-12l-12 -12v-24zM484 347h12l48 24l-24 24q0 -24 -36 -24v-24zM496 563l24 -24v12l-24 24v-12zM801 155l60 36l12 -12h12l36 12 l-12 48l12 108l-12 72l12 120l-12 48l12 48l-12 12v36h12l-12 204v204h12l60 -36q55 23 60 48v12l-48 60q0 -52 -48 -72l-36 12v60q0 20 -84 48v60q0 63 36 108l228 -24l12 12h12l48 -12h24v12l60 -12l168 12l36 -48v-24l-12 -120h-48q-73 0 -96 -60q8 -48 60 -60l-12 -48 l12 -132h-12l12 -12v-36l-24 -24l-12 12v-36q36 0 36 -24q-9 -168 -36 -168l-24 24l12 12v12q-24 0 -24 36h-48q0 -36 -24 -36h-12q0 72 -36 72h-60l-12 -48l48 -72v-12q-60 0 -60 -24l-12 -36h12q108 0 132 -108l12 -12h12q0 72 60 72q0 -36 48 -36l12 -12v-108 q0 -137 96 -168l12 -12v-48q0 -90 -60 -108h-24v12l-264 -12h-228q-72 20 -72 84zM849 1283l12 -36l48 24l-48 48zM921 1271l24 -24v24h24l24 -24l36 12v12l-108 36v-36zM1077 1067q60 -43 60 -72h24l24 24v60q-12 36 -72 36zM1101 1199l24 24v12h-24v-36zM1125 359l36 -48 l-12 -36v-12h12q0 36 48 36v36l-48 24h-36zM1149 935l12 -36h12v36h36q27 0 36 -60l48 36v12q-36 0 -36 60h-24v12l-72 -36v24h-12v-12l12 -36h-12zM1209 179l36 -12v36h24v-36l36 36h12v24l-84 36l-24 -60v-24zM1233 347h24l12 36h-12l-24 -24v-12zM1245 299l12 -36h24v12 l-24 24h-12z" />
<glyph unicode="i" horiz-adv-x="716" d="M40 9v84l24 24l12 -12v-12l48 12v36l-24 24h-60v24q0 26 144 60l12 12q0 48 -48 48v253l-12 60l12 72v360l-12 120h12q-7 48 -84 48l-24 36v60l48 72l144 -12l96 12l96 -12l120 12q72 -9 72 -24l12 12h12l24 -24v-84q0 -91 -120 -96l-24 -240l12 -12l-12 -84v-252 l-12 -12v-12q24 0 24 -36l-12 -109l12 -216h36q66 0 108 -72q-15 -132 -60 -132l-12 36h-24q0 -36 -24 -36h-300l-96 24h-24l-84 -24zM220 93l12 -36h12l48 84l-12 12l-36 12zM220 670h36l-12 36l-24 -24v-12zM316 562l12 -12h24v36h-12zM352 1006l24 -24l36 12l-12 36h-24z M448 886l12 -12h48v36h-36zM448 1102h36l-12 36h-24v-36zM508 33h12l24 108h-24l-12 -72v-36zM520 1222l36 -12v48h-12l-24 -24v-12z" />
<glyph unicode="j" horiz-adv-x="1196" d="M40 349v60q0 96 120 96l36 -36l-12 -12v-12q55 -240 180 -240q120 -18 120 -48l-12 -60l12 -84l-36 -24l-12 12l-12 -12h-12q-372 0 -372 360zM460 1225q0 132 96 132l348 12l12 -12h12l48 12v-36h24q0 36 36 36q120 -15 120 -48v-96q-16 -48 -108 -48l-12 12 q0 -48 -48 -72l12 -36h-24l-12 12h-12v-36q72 -12 72 -36v-204l12 -72l-12 -36l12 -36l-36 -72l36 -36v-108h-12l-12 12h-12q0 -48 -24 -48v48l48 72l-84 48l-36 -36v-60l36 -48l-24 -24l-36 12v-24h-24v24l-60 -12l-12 12h-12l12 12v24h-12q0 -36 -36 -36l-48 24l-60 -60 h-12v360l12 12l-12 12v144l12 48l-12 48q0 24 48 24v12q-48 60 -48 96h-120q-24 0 -36 72zM520 121h12l-12 12v12q96 88 96 144v60l36 12l12 -12v-24l-36 -12l36 -120l-48 -24q16 -72 48 -72l24 24q24 0 24 -48h36v36h-24l-48 96h12q24 0 24 48h60l60 36v24l-60 12l-48 -12 q0 24 -36 24l24 24l72 -12l36 24l36 -24l36 12l48 -36l48 12v84l60 -48l-48 -84l12 -36l-12 -12h-12l-60 72h-24q0 -40 36 -84v-12l-36 24q-20 -60 -120 -96l12 -48h12l12 12l60 -12q-136 -132 -324 -132zM640 997l12 -48h24l12 48h-48zM712 265v36h24v-12zM748 613 q50 0 60 -84h-12l-36 12v-36q0 -24 72 -36v12l12 60l-12 36l36 36h-12l-48 -12l-24 24h-36v-12zM772 1105l12 -60l12 12l12 -12h36l36 36q-24 0 -24 36h-24q0 -48 -24 -48h-12v36h-24zM952 769l36 36h-36v-36z" />
<glyph unicode="k" horiz-adv-x="1448" d="M40 1316l12 84h24l108 -12l12 12l60 -12h36l216 12q144 -15 144 -48l-12 -36l36 -12v-24l-96 -84v-120l-12 -12l12 -12l-24 -324l12 -60l-12 -12h-12l-36 24q-60 -7 -60 -72q44 -36 84 -36l12 36h24l24 -384v-48l72 -72v-60q-30 -60 -108 -60l-36 12l-36 -12 q-420 0 -420 84l-12 60l84 84v108l36 36l-12 12v12q0 33 60 36v24h-24l-36 -24h-12v144l48 12v-12l48 12v60l-36 36l-60 -12v36l-12 48l12 12v12l-12 192v72h12l12 -12q48 18 48 36l-48 36l12 12v12q-20 0 -36 84l12 48v12q-78 0 -108 60zM172 104l48 -48h24l12 36 q-23 55 -48 60h-36v-48zM196 368l60 -24l24 24l-36 36l-48 -12v-24zM244 1328l36 -36h36l-12 72h-36l-24 -24v-12zM280 524l36 -12v36h-12zM280 800l60 -12l36 12v84h-72l-24 -48v-36zM292 356h24l36 24q0 -36 84 -48l24 96l-60 36l-24 -72l-12 12h-60zM364 632l36 -12 l12 12v36h-48v-36zM364 920l36 -24l12 12v36h-24zM448 1040q0 -24 72 -36v84h-24v12l-36 -12l12 -12v-24h-24v-12zM472 344l12 12h12l60 -24v12q0 20 -72 36l-12 -12v-24zM472 752h12l36 12l-36 36l-12 -12v-36zM484 512h36l-12 36h-24v-36zM604 596l12 36l-12 108v36 l96 -24l60 12q-31 96 -48 96l-96 -24v12q75 67 96 132q36 0 36 36l12 12h12l72 -24l36 24l-60 108q32 8 60 60v48q-43 0 -72 36l-12 -12h-12l-24 24v72l36 36h312l12 -12l12 12h12l12 -12l84 12h60l36 -36v-60q0 -43 -216 -84l-228 -324q24 0 24 -36l-12 -36h36v-24h-36v-24 q85 0 180 -228q23 -4 36 -72h-12q-36 0 -36 -24v-24l48 -12l12 36h12q27 0 36 -60l-12 -12h-24l-36 24l-48 -12l-36 36l-12 -12h-24l-48 24v48l24 24l24 -24h12l24 24q-36 0 -36 36l-120 60l12 -12v-24h-24q0 41 -36 72l-72 -12v-12q12 -36 72 -36v-24l-48 -24l36 -48 l-36 -48l12 -12v-36q-84 38 -84 108v36l12 12v12h-12l-48 -12zM784 128l72 72l-24 24v24h12l12 -12h12l48 12v-12l72 24l108 -24l36 12q96 -8 96 -24l12 12h12q98 0 156 -108q-49 -118 -72 -120h-36l-12 12l-12 -12h-12l-12 12l-264 -36l-108 12l-36 -12q-60 87 -60 144z M784 824l24 -24l12 12v12h-36zM844 440l12 12h12l12 -12v-24l-24 -24zM928 1256l72 -24v36h-36v36h24v12h-24z" />
<glyph unicode="l" horiz-adv-x="1196" d="M40 140v36h96v72l12 396l-12 276l12 120l-12 72q108 21 108 48l-48 60l-36 -12q-120 12 -120 36v36q0 120 144 120h48l60 -36l36 36v-12l-12 -12v-12l36 -24h12q24 0 24 36l12 12h108l108 12q60 -15 60 -36v-96q0 -16 -108 -48v-24h-72l-24 -72l84 -48v-216l-12 -72 l12 -12v-12l-12 -60l12 -12q-12 -132 -36 -156l24 -24h-12l12 -36q0 -264 60 -264q72 0 72 -24v-120q0 -84 -552 -84l-36 -12q-48 55 -48 168zM196 752h12l24 24h-12zM328 932l24 -48l36 12l12 -12h12l36 12v12q0 65 -48 84h-12l-60 -48v-12zM388 1208h36q0 24 36 24v12 q-5 25 -60 48v-36l24 -36h-36v-12zM724 56v96l36 36v-12q240 73 240 204l-12 12v12l12 60l-12 48l12 12h24l132 -48l-24 -204v-12l12 -48l-12 -48v-84q-28 -60 -60 -60l-12 12l-180 -24v12l-12 -12h-60q-64 0 -84 48z" />
<glyph unicode="m" horiz-adv-x="1532" d="M40 22v72l12 12l-12 12v24q0 21 144 60l12 60l-12 228v72l24 24l36 -36v60q-60 0 -60 36q0 156 36 156h12l144 -216l24 -24v-252l-12 -48q0 -60 60 -60q96 -40 96 -60q0 -144 -84 -144l-48 -12l-60 12h-156l-108 -12q-48 18 -48 36zM76 1258q6 144 48 144l144 -36l48 12 l72 -60h24q0 48 24 48q130 0 204 -204l12 -12l-12 -12l-72 -24l-24 24l-24 -24l108 -36l36 12l24 -24l-12 -84v-24h60l-12 -84q63 0 84 -96q84 -131 84 -180l-12 -12l24 -24v-24q-135 -222 -192 -444h-24q-104 74 -144 216q-123 237 -228 540q-92 198 -120 204l12 36l-12 96 h-84q-36 12 -36 72zM148 142l60 -36v24q0 27 -60 36v-24zM232 190l12 -84l12 -12h36v12q-48 0 -48 84h-12zM256 526l24 -24l24 24v12h-12zM412 874l24 -24l36 12l-12 36h-24zM424 1222l60 -24h36l60 12q0 36 -60 36l-12 36h-12l-48 -36l-12 12l-12 -12v-24zM496 970h48 l-12 48h-12l-24 -24v-24zM508 754l12 -12h48v36h-36zM556 898l24 24l-12 12h-12v-36zM592 862l24 -24h12v48h-12zM712 742h36v24l-24 24h-12v-48zM724 514l24 -24v24l-24 24v-24zM820 886q7 120 36 120v-36h36v36l-36 12l36 96l60 -24l36 12l12 -12l12 12v36h-84l-12 12h-12 q12 60 48 60v72q48 41 48 84l36 24h84l132 12q54 -24 156 -24h36l24 -24v-108q0 -21 -60 -36l-12 -48l12 -12v-48l-12 -72l12 -12l-12 -84v-492l-36 -60q44 0 72 -192q55 -23 60 -48v-12q-40 -156 -72 -156h-12l-12 12l-12 -12h-12q-36 0 -36 36l-12 12h-24q-51 -48 -96 -48 h-72v36l12 12l-24 60h24l-12 48l-60 -36l12 -12v-12l-24 -24q-23 55 -48 60q-24 0 -24 -36q0 -22 72 -60v-24h-24q0 36 -24 36q-16 -72 -36 -72h-12l-48 60v120q0 24 108 48v48l-12 72l12 12v12l-12 132v96q-51 56 -120 204l12 36h-12q-48 0 -48 36l12 48zM928 862l24 -24 h48v48h-12l-60 -12v-12zM964 1198l84 -12h60v24q0 27 -132 36l-12 -12v-36zM1012 982q0 -24 36 -24l36 12l-36 36v12l-36 -12v-24zM1024 1330h36l-12 36l-24 -24v-12zM1072 1318l60 -12h36v36l-12 12v12q-84 -16 -84 -36v-12zM1096 1078h36v36h-36v-36zM1108 382h36v24h-12z M1144 358h12l24 24h-12zM1204 958l12 -12h24v12l-24 24l-12 -12v-12zM1264 250l36 -24h12v60h-12zM1264 1318l24 -24h60v24l-36 12zM1360 106l36 -36l-12 -12v-24h48l-12 48l12 48l-60 12l-12 -12v-24z" />
<glyph unicode="n" horiz-adv-x="1388" d="M40 120q53 36 108 36v60l-12 120q72 0 72 24l-36 36l-12 -12h-12l-12 12v144q0 24 36 24v36q0 24 -36 24v36l-12 96l24 156l-12 12v12q24 132 48 132h24q24 0 36 -96q93 -105 144 -204v-24l-12 -12v-12q120 0 120 -324l-24 -24q24 0 36 -156q96 -21 96 -72l-12 -36 l12 -72v-12l-24 -36l-60 12l-84 -12v12l-12 -12h-108l-192 12l-48 -12q-36 47 -36 132zM52 1236q8 72 36 72l36 -60h-12l12 -12v-36q-62 0 -72 36zM160 1284q36 60 84 60v-12l12 -12v-12q95 48 156 48h36l36 -36l-12 -12l-12 12h-24l-60 -72l-132 24v-12l-36 -48zM172 504 q36 0 36 -48l12 -12h24l24 24v24q-60 0 -60 48h-36v-36zM196 696l48 -12l12 12v36h-36l-24 -24v-12zM196 1164l12 36h12l12 -36l-12 -12h-12zM256 288l36 -48v48h-36zM304 1044l12 12l48 12h24l108 -12q36 0 36 48h24v-12l-12 -12v-12l12 -12h24l48 12l48 -12l-24 48l48 36 l-36 60h-12l-12 -12h-12l-24 36l-96 -48l-12 12v12l12 12h-24v24l12 12v12l12 -12h12q60 15 60 36q0 20 -72 48v12l12 12h60q102 -68 312 -504q248 -385 336 -588l-12 -12l12 -60v-36l-12 -12l12 -12v-12l-12 -12v-12l12 -72l-48 -36l-144 12l-144 -12zM316 564h12l36 12v24 l-48 12v-48zM328 348h36l24 24l-24 24h-36v-48zM340 120l24 -24h24v12l-12 36h-36v-24zM388 468l48 -12l12 12v36h-48zM628 588l36 -24h12l24 24l-12 36h-24zM724 684h36v12l-24 24l-12 -12v-24zM820 360l36 -24l12 48h-24zM820 588l12 -36h36l-12 60zM868 1200v60l36 -24 l36 12l12 -12l12 12v36h-12l-36 -12v24l12 12v12q-48 0 -48 24q42 36 144 36h96l72 -12l12 12h12l84 -24l36 12l12 -12v-24q0 -120 -108 -120l-36 12v-12q0 -27 -60 -36l-108 36v-12l12 -12v-12l-12 -48q24 0 24 -36h24q3 48 48 48l24 -24l12 12h12l12 -12v-12l-24 -24h-84 l-12 -60v-12l24 -36l-12 -12l12 -48h24v48h24l84 -120l-12 -60l12 -48q-8 -180 -36 -180q-168 177 -168 252l-12 156l12 12v12l-12 72v48l12 12q0 27 -72 84v12h-12q0 -36 -24 -36h-24z" />
<glyph unicode="o" horiz-adv-x="1508" d="M40 539v72l24 36v24l-12 120q0 190 216 432l60 48h24v-36l-36 -36l12 -60h12q0 48 24 48v-72h36l-24 60l12 12h-24v36h24q60 -23 60 -108h12q0 92 36 120v12l-12 -12h-48v12l48 24h24q0 -24 48 -24l24 -48h12l48 48l-12 12v12l12 60h12l24 -24l-12 -48l12 -36 q-82 -49 -132 -132l12 -12q-20 -216 -36 -216l12 -36l-12 -324q0 -345 216 -384l12 -108q-25 -72 -96 -72q-368 0 -552 456q0 75 -60 144zM184 815l48 -24l36 36v36q0 24 -36 24l-36 -12v-24h36q0 -24 -48 -24v-12zM304 575q36 -31 36 -96l36 -12v12l-12 36l12 72l-36 12 l-36 -12v-12zM316 863l24 -24v12l-12 84h-12v-72zM352 647l24 -24v48h-24v-24zM388 1283v36h24v-12zM424 587l24 -24v12l-24 24v-12zM448 1307v12l24 24h12l24 -24v-12l-12 12h-12l-24 -24zM532 1175h12l24 24h-36v-24zM808 23q0 57 132 132q45 0 84 300l-12 156l36 12v60 h-24v156q0 24 48 24l-60 60v12l12 12q0 154 -84 264v12l24 24v-12l48 24l12 -12v-12l-12 -12q24 0 24 -36l120 60q0 65 36 84q252 -137 252 -372h-12q-24 0 -24 36l-48 -24v-12l12 -60l-12 -12l12 -12h24v24q72 0 72 -228l-12 -12v-12l12 -36q-39 -182 -96 -312h-36v24h-12 v-24l24 -24q0 -57 -180 -228h-24v24l-24 -24l12 -36q-67 -60 -240 -84h-24zM832 1271v60q29 0 72 60h24v-12q-12 -48 -48 -48l12 -108h-12l-12 12h-12l12 12v24l-12 -12h-12zM928 47l12 -12v-12q53 36 96 36l-12 48h-84v-12l24 -36zM1048 1259v36h12l24 -24v-12h-36z M1156 731l36 36h-36v-36zM1192 1247l24 -24v60l-24 -24v-12zM1204 323l12 -48l36 36l-36 24zM1228 935l24 -24v-12l-12 -12v-12l12 -12h12q40 0 84 36l-36 84h-24q0 -24 -48 -24l-12 -12v-12zM1264 539l84 -12h12v24q-40 0 -84 36l-12 -12v-36zM1276 299l24 -24l12 48h-36 v-24zM1384 911v12l24 24v-12z" />
<glyph unicode="p" horiz-adv-x="1328" d="M40 157q132 42 132 60l12 192l-12 12l12 60v240l-12 48l12 48l-12 12l12 60l-12 204l12 72q-132 30 -132 48v12q0 60 72 144h36l36 -24l24 24l12 -12l12 12l12 -12v-12q-27 0 -36 -60l12 -12h12v36h12l48 -48l12 12h12l60 -24v12q0 48 24 48h12l24 -24q108 0 108 72h24 l36 -60l-12 -48l12 -36h-12l-12 12h-12v-24l24 -36l-24 -24l24 -48l-12 -288v-24l-12 -12l24 -60l-12 -60v-372q0 -94 96 -108v-12q0 -151 -96 -180l-84 12h-84l-288 -12q-64 0 -96 180zM304 1357l144 24q55 -23 60 -48v-12h-24l-48 36q0 -20 -84 -36q-48 18 -48 36z M676 577q0 144 120 144q108 0 108 264l-12 48l12 36q0 93 -168 120l-36 -12l-12 36q12 144 48 144l72 -12l12 12h12l108 -24l36 12q31 -24 120 -24l12 -12q36 0 36 -72h36l-12 -12v-24h12v24h24q84 -139 84 -204v-108l-24 -96l-72 24l-36 -48q72 -54 72 -108v-24l-96 -96 q-24 0 -24 108l-36 24h-36l-36 -36v-36q60 -3 60 -36v-48q0 -40 -180 -48v12l-120 -24q-57 0 -84 96zM964 733l12 -36h36v24zM988 1093h36l12 48h-24l-24 -24v-24z" />
<glyph unicode="q" horiz-adv-x="1508" d="M40 647l12 12v12l-12 36q39 182 96 312h36v-24h12v24l-24 24q0 57 180 228h24v-24l24 24l-12 36q67 60 240 84h24l60 -96q0 -57 -132 -132q-45 0 -84 -300l12 -156l-36 -12v-60h24v-156q0 -24 -48 -24l60 -60v-12l-12 -12q0 -154 84 -264v-12l-24 -24v12l-48 -24l-12 12 v12l12 12q-24 0 -24 36l-120 -60q0 -64 -36 -84q-252 137 -252 372h12q24 0 24 -36l48 24v12l-12 60l12 12l-12 12h-24v-24q-72 0 -72 228zM100 371v12l24 24v-12zM148 767q40 0 84 -36l12 12v36l-84 12h-12v-24zM160 419l36 -84h24q0 24 48 24l12 12v12l-24 24v12l12 12v12 l-12 12h-12q-40 0 -84 -36zM196 995h36v24l-24 24zM256 1007l36 -24l12 12l-12 48zM292 35l24 24v12l-24 24v-60zM316 551h36v36zM424 47v12h36v-36h-12zM472 1259l12 -48h84v12l-24 36l36 12l-12 12v12q-52 -36 -96 -36zM580 -61q12 48 48 48l-12 108h12l12 -12h12l-12 -12 v-24l12 12h12l12 -12v-60q-28 0 -72 -60h-24v12zM760 1307q25 72 96 72q368 0 552 -456q0 -75 60 -144v-72l-24 -36v-24l12 -120q0 -190 -216 -432l-60 -48h-24v36l36 36l-12 60h-12q0 -48 -24 -48v72h-36l24 -60l-12 -12h24v-36h-24q-60 23 -60 108h-12q0 -92 -36 -120v-12 l12 12h48v-12l-48 -24h-24q0 24 -48 24l-24 48h-12l-48 -48l12 -12v-12l-12 -60h-12l-24 24l12 48l-12 36q82 49 132 132l-12 12q20 216 36 216l-12 36l12 324q0 345 -216 384zM904 -193q65 84 132 84q72 -3 72 -24l276 48l36 -36v-36q-9 -87 -132 -240h-72q-147 0 -312 204 zM940 119h36v24h-12zM1000 -1v12l12 -12h12l24 24l12 -12v-12l-24 -24h-12zM1060 743l24 -24v12l-24 24v-12zM1096 -1v12l24 24v-36h-24zM1132 647h24v24l-24 24v-48zM1132 731l36 -12l36 12v12q-36 32 -36 96l-36 12v-12l12 -36zM1168 467l12 -84h12v72l-24 24v-12z M1240 455q0 -24 36 -24l36 12v24h-36q0 24 48 24v12l-48 24l-36 -36v-36z" />
<glyph unicode="r" horiz-adv-x="1364" d="M40 163l12 -12h12q0 42 96 72l12 204l-12 12l12 60v240q0 30 48 36l-12 60q48 18 48 36l-36 84q-48 0 -48 36l-12 96l12 96q-132 30 -132 48v12q0 60 72 144h84l12 -12l12 12h108l96 12l84 -12l84 12l24 -24l-24 -108l12 -12q0 -348 -72 -348l-24 -36q24 0 24 -48l12 -12 h12l12 12l12 -12v-48h-24v36l-36 -24l-12 12v-36l84 -24l-12 -60v-168q0 -36 -48 -36l-12 -12v-12l12 -12h12l36 12l-24 -36l24 -24v-84q0 -94 96 -108v-12q0 -151 -96 -180l-84 12h-84l-288 -12q-84 24 -84 168zM196 451l12 -60h36l-12 72l-12 -12h-12l-12 12v-12zM220 727 q24 0 24 -48h72v12q-24 24 -24 96q-48 0 -72 -60zM232 295l12 -12h12l36 24l12 -12h12v12q0 24 -36 24q-48 -18 -48 -36zM256 727v36l24 -24l-12 -12h-12zM268 271l24 -24h12v24h-36zM292 1015h24v36l-24 -24v-12zM304 1099l72 -24v36h-36v36h24v12h-24zM544 871v36l24 -24 l-12 -12h-12zM664 583v12l12 72l-12 36q216 26 216 180l12 120l-12 48l12 36q0 93 -168 120l-36 -12l-12 12v12l12 156h36l72 -12l12 12h12l108 -24l36 12q228 -50 228 -120q84 -120 84 -204v-84q0 -294 -180 -384q-80 -48 -180 -60v-12h156l12 -12l12 12h12l108 -276 q75 0 108 -60v-120q-12 -36 -72 -36h-204l-180 -12z" />
<glyph unicode="s" horiz-adv-x="1196" d="M40 127v240q0 40 168 48q0 -31 43 -80l-46 -46v-24q24 0 24 36h36l-24 -36l36 -24h12l12 12h12l-4 25q47 -41 115 -91q118 -46 120 -72v-72q0 -29 -120 -36l-36 24l-60 -12l-168 48q-28 -72 -48 -72h-36q-36 0 -36 132zM65 956q46 21 51 44l-24 24v24h12l36 -12v36 l-48 60q-7 0 -13 -1q31 98 123 168l16 -12l3 3h24l12 -36h-1q20 -19 37 -38v14h24q0 33 -60 36l24 36l60 -24l36 12l-12 12v12l12 12v12l-72 22q17 8 35 15l24 24l60 -12l84 12l24 -36l12 12h12l24 -24v-72l-132 -60q-60 -63 -60 -132q0 -96 336 -156q119 -54 205 -117 l22 -33l9 9q20 -16 38 -33q-47 0 -47 -24l24 -24v-12l-12 -12l24 -60l-36 -12v-48l24 -24h12q24 0 24 36l-12 60q26 26 63 49q94 -122 94 -271q0 -124 -144 -300q-168 -132 -240 -132h-96l-48 48v72l157 90l96 -32q96 17 96 60v12h-170l37 110q0 104 -456 180 q-307 126 -323 433zM97 875l36 -24h36q20 0 36 84l-84 12zM200 772q18 -48 36 -48l12 12h12q60 0 60 -60h72l24 24v36l-36 36l-84 -12l-12 12v12l60 24v12q0 65 -48 84h-12l-60 -48v-24l12 -36h-12zM476 628l12 -36h24l24 24v12h-60zM652 1255q0 132 60 132l72 12l216 -48 q5 25 60 48q72 -12 72 -36v-240l12 -60l-72 -72h-12q-82 90 -152 146h28l12 -12h12l24 48q-24 0 -24 36h-12v-24h-12l-60 12v-24h-12l-12 4q-85 54 -152 54q-48 0 -48 24zM1035 505h36v12l-24 24l-12 -12v-24zM1035 697v22q6 -6 11 -13z" />
<glyph unicode="t" horiz-adv-x="1292" d="M40 931v132l48 48q-36 59 -36 240l36 12l84 -12l12 12l84 -12h84l60 12l12 -12v-36q0 -93 -156 -204v-24h-36q0 48 -24 48h-12v-60h-12l-12 12h-12q0 -32 -36 -72q48 -6 48 -36l-36 -24l24 -48l-12 -12q-108 14 -108 36zM76 1291l60 -12l12 48l-12 12h-60v-48zM424 187 q72 0 72 72v36l-12 48q15 60 36 60l48 -48h36v24h12l72 -84h24q25 5 48 60l-24 36l-12 -12h-12q-29 0 -108 108l-12 -12h-24v12q0 24 36 24v24h-12l-48 -36l12 -12v-12l-12 -12h-24l-24 24l12 12v12l-24 24v108h72l12 60l-72 72l36 24l-12 60l-12 -12h-12l-12 12v72l48 24 l12 -12h12v12q0 24 -36 24l-36 -12v24l12 108l-12 12q7 228 72 228q0 34 144 48h132l24 -24v-12l-12 -12l24 -108v-24h-12l12 -120v-48l-12 -348l12 -12v-12l-12 -48v-60l12 -72l-12 -12v-12l24 -204l-12 -36q132 -27 132 -48q-27 -156 -48 -156h-36l-36 24h-12l-36 -24v24 h-12v-24l12 -12l-156 -12l-12 12h-12l-72 -12l-24 24l-12 -12h-36l-24 24l24 24l-12 36l-12 -12h-12zM508 919l24 -24h12v24h-36zM916 1243v96l24 24h24l12 -12l12 12h60q84 -4 84 -24l60 12h36l12 -12h12l-24 -396q-76 0 -120 -48l-60 168z" />
<glyph unicode="u" horiz-adv-x="1376" d="M40 1327l48 48h72l240 -24l12 12h12l48 -12l72 12v-12l12 12q132 -9 132 -36v-24q-120 -73 -120 -96l12 -12h12l36 24h24v-24q-96 0 -108 -144l12 -36l-12 -168l12 -84l-12 -12h-12l-24 48l-48 -12l-60 24l-24 -24l-24 24q0 -24 -96 -36v48h-36l-48 -36l12 -36l-24 -24 h36l-12 -36v-12h12q0 36 36 36l-12 12v12l12 12v12l60 -36q0 48 84 48l36 -48q-30 0 -36 -48l36 -24l-12 -60l24 -36v-12h-24v-24h12l12 12h12l12 -12v48l-12 60l48 12l12 -12v12l-12 36l12 36l-12 12l48 12q24 -61 24 -216l-12 -12l12 -12v-96l-12 -60l-60 12v12l24 36h-12 l-48 -12l12 -60h-36l-12 12h-12v-36l36 -36l12 12h24v-36l72 24q29 -63 168 -108v-132q-12 -36 -72 -36l-12 12h-12l-24 -24q-420 69 -420 252q-28 0 -36 192l12 84l-12 72l24 120h12v12h-24l-12 -12v456q0 20 -84 48zM136 1243l24 -36l12 12h24l12 -36q-48 0 -48 -24 l24 -24v-12l-12 -12l24 -60l-36 -12v-48l24 -24h12q24 0 24 36l-12 60q47 48 132 84l-24 36l-72 -60v36h24q0 33 -60 36l24 36l60 -24l36 12l-12 12v12l12 12v12l-120 36q-31 -60 -72 -60zM244 931h36v12l-24 24l-12 -12v-24zM364 1243l24 -36l12 12h72l12 -12h12l24 48 q-24 0 -24 36h-12v-24h-12l-60 12v-24h-12l-36 12v-24zM412 979l36 -36l12 12v12l-36 36l-12 -12v-12zM412 1063l24 -24l60 24v12h-84v-12zM436 451l36 -12v36l-36 -12v-12zM796 115v48l120 72h24q0 -36 48 -36q35 72 84 72l60 -12l12 12l12 -12v-12q0 -24 -48 -24l-12 -12 v-12h36v-24h-108l-12 -48l24 -24l-36 -24l12 -36l-108 -48h-60q-33 0 -48 120zM832 1219l24 144l192 -24l120 12h96q24 0 24 -72q48 -6 48 -36l-36 -84l-60 12q-60 0 -60 -204l-12 -12v-12l12 -360v-60l12 -60h-12q-72 28 -72 48l12 12h-72l24 -48h-36l-36 36v96l12 108 l-24 372h12q0 108 -144 108zM928 1255l36 -60l60 24l12 -12q0 24 60 24l12 12v12l-36 24h-120zM1072 211l24 24v12h-24v-36z" />
<glyph unicode="v" horiz-adv-x="1208" d="M-71 1249v24q0 65 60 96h264l120 -12l108 12h72l36 -24q-12 -144 -96 -144q0 -129 312 -972q-48 -252 -120 -252l-12 12v12l-12 -12h-60q-30 0 -36 48h-12v-24q-32 0 -60 60l48 12v24h-36q0 -36 -24 -36q-36 44 -36 84v48q30 0 36 48q60 24 60 84q-18 48 -36 48 q-60 -57 -72 -108l-84 24l12 12q0 72 -60 72h-12v12l12 12v12q-34 0 -72 132q60 15 60 36l-24 48h-36v-12l12 -36h-24l-168 600q-120 21 -120 60zM253 865q12 -48 60 -48l12 12v60h-36zM265 949l36 -36l36 12v12q0 24 -36 24zM325 217v48h60l12 -12l12 12h12l24 -24 q-48 -65 -48 -108h-36l-24 24v12l48 72l-36 12v-36h-24zM373 49v60h24q0 -24 60 -48l-24 -48l12 -12l-12 -12h-12zM397 505h48l-12 60h-12l-24 -48v-12zM589 193h24q32 5 48 60l-36 24h-12l-24 -24v-12h24v-36h-24v-12zM625 289h24v36h12q24 0 24 -48h24q-12 108 -36 108 h-12v-12h24v-24l-60 -24v-36zM721 553q132 356 192 636q-156 15 -156 120v36l72 36q28 -24 144 -24v-12l12 12h144l48 12l36 -24l12 12h12q48 -18 48 -36v-72q-10 -28 -156 -72q-237 -743 -300 -792h-24zM817 625h36v24l-36 -12v-12zM877 601h36v36l-24 24z" />
<glyph unicode="w" horiz-adv-x="1546" d="M-55 1346l24 24l12 -12l108 36l156 -24l12 12h12l36 -12l192 12h84q36 -12 36 -72v-60q0 -18 -120 -60v-12q60 -368 132 -576l-36 -12v-12l36 -36l12 12l72 -168v-84q-60 -73 -84 -276l-48 -36h-84l-144 -12q-60 90 -60 156v12l24 36q-84 0 -84 240l-12 48l72 24v-12 l-24 -72l36 -60h12q36 0 36 72h36v24l-108 60l12 60l-24 24l12 12v24l-36 36q0 -84 -36 -84h-24l-12 72l12 36q-21 0 -36 60l12 36q-29 0 -36 108l12 36q-72 121 -72 264h-84q-36 0 -36 156zM161 806l12 -12l12 12h36l36 -36q96 24 96 48q-48 0 -48 72l-120 72h-12v-12 l12 -12v-12l-24 -48l12 -12v-36l-12 -12v-12zM233 674h36v12l-24 48h-12v-60zM245 1190l12 12h12l36 -24h12l-36 36h-36v-24zM281 686h24l12 48h-12l-24 -24v-24zM605 914q79 468 156 468h48q156 0 156 -60q147 -643 192 -684v-24l-12 -12q-72 -24 -72 -84q72 -2 72 -72h-12 q15 -84 72 -84l24 24l24 -72h-24v-12l24 -36l-12 -12l12 -12v-12l-36 -108l-12 12q-24 0 -24 60l-48 12q-48 -18 -48 -36q0 -40 36 -84q-60 -37 -60 -96h-60l-12 12l-12 -12h-36q-72 0 -216 552q-24 0 -24 84l-84 216l24 24zM1073 1226v60q0 92 48 108l456 -24l48 12l12 -12 q-16 -168 -48 -168l-12 12h-12q0 -24 -84 -24q-36 -29 -132 -456l-48 -216v-36h-12q-57 27 -108 264l-36 48l108 396v24zM1145 326h48v24l-48 -12v-12zM1469 1250l12 -36h12v36h-24z" />
<glyph unicode="x" horiz-adv-x="1187" d="M-19 153q264 72 264 216l72 96l72 24q72 -100 72 -132q0 -68 -72 -168q132 -43 132 -72q-24 -84 -60 -84l-288 -24q-180 0 -180 48zM5 1257v108q0 24 72 48q42 -21 300 -36l144 24l168 -372l-60 -36h-12v-12l72 -60h12v36h12l24 -24v-72l36 -36l12 -36h-24v-12 q69 0 216 -372l72 -120l-12 -36q144 -43 144 -72v-132l-24 -24h-48l-12 12h-12l-12 -12v-12l-96 48v-24h24l-24 -24l-12 12l-12 -12h-72q-60 0 -60 24l-48 -24q-156 12 -156 132l-12 12l-12 96h24v12q-6 96 -96 96l-324 744q-20 108 -132 108q-35 0 -60 48zM365 105h12 l24 24h-12zM449 717q24 0 24 36h36l-24 -36l36 -24h12l12 12h12l-12 84h-48l-48 -48v-24zM545 561l72 -24q55 23 60 48l-24 24v24h12l36 -12v36l-48 60q-57 0 -96 -60l12 -12v-12zM641 213l12 -36h12v36h-24zM641 477l36 -24h36q20 0 36 84l-84 12zM653 249h12l24 24h-36 v-24zM701 1077v12q0 24 48 24l60 108h-12q-72 28 -72 48v24l60 96h60l36 -12l60 12h240l24 -24q0 -60 -24 -60l12 -12v-12q-39 -36 -252 -120l-24 -24h-12v-12l24 -36l-96 -132h-24zM749 57h60v12h-60v-12zM749 117l24 -24q0 24 36 24v12h-24v12l-36 -12v-12zM761 357 q18 -48 36 -48l12 12h12q60 0 60 -60h72l24 24v36l-36 36l-84 -12l-12 12v12l60 24v12q0 65 -48 84h-12l-60 -48v-24l12 -36h-12zM953 1257l48 -36l24 24q-18 48 -36 48zM1037 213l12 -36h24l24 24v12h-60z" />
<glyph unicode="y" horiz-adv-x="1171" d="M-79 1257q39 128 84 132l96 -12l48 12l180 -24l48 12h36q29 0 36 -96l-12 12h-12l-24 -24v-24l60 36l216 -348q108 -115 108 -180l-24 -24l24 -36q-24 -72 -72 -72v-24l-60 12l-12 -12v-12l12 -12l-12 -12h-12l-12 12l-12 -36h12l36 12l24 -36v-24l-36 -36l-12 36h-12 q-24 0 -24 -36l-12 -12h-12l-12 36h-12l-24 -24l12 -12v-12l-12 -12h-12l-12 12l-12 -12l12 -120l12 12h12l24 -24q-60 -28 -60 -60h-48l-36 36v24l12 12l-12 12v168l-12 48l12 48v60q36 0 72 72h-24l-60 -24l-168 300l-36 60v12q0 24 36 24v24l-24 60l-36 -12v-12l24 -36 v-12h-12q-72 66 -72 108h-36q-144 14 -144 60zM269 177l12 12h72v-60l-12 -12v-12l60 -24l60 24l72 -12v24l-48 60v48l24 24l48 36h12l12 -12h12l12 12v12l-48 48h24l12 -12h12q0 36 24 36q36 0 36 -72h12l12 60l-12 12v12q0 27 60 36l36 -36h12l-12 48l12 36l-48 -24 l-24 60l12 12v12l-12 36l72 24l24 -24v-324q72 -12 72 -36q-24 0 -24 -84q-83 -52 -96 -120l-60 12h-84l-12 12l-108 -24q-216 0 -216 84zM365 849l24 -24h12v24h-36zM497 1125l24 24v12h-24v-36zM689 633h24v36h-24v-36zM737 957v12q156 174 156 228l-60 -12h-24l-24 24 l12 48l-12 60q17 50 60 72l108 -36l204 36h12q25 -5 48 -60l-12 -72v-36h-12l-12 12h-12q-51 0 -168 -204l-48 -12l-24 24l-12 -48l36 -12v-24q-56 0 -72 -48l12 -36l-12 -12q-60 0 -144 96z" />
<glyph unicode="z" horiz-adv-x="1304" d="M40 68q0 141 84 228l204 336l36 -12v12l-12 36l60 96l12 -12h24l-12 36q77 156 120 156q0 31 168 312q0 21 60 36q0 108 36 108h48l36 -12l60 12h120q180 0 180 -132q-153 -220 -204 -252q-32 0 -60 -60l12 -48q-19 0 -84 -108l-72 12v-12l24 -72q-34 -96 -96 -96l12 -12 v-24q-24 0 -204 -360q-111 -190 -156 -228h-156l-48 12l-144 -24zM64 992v36q0 78 60 120q-24 0 -24 36l-36 12q20 192 60 192l48 -36l-36 -24q7 -48 96 -48l-12 84v12h12l12 -12q68 24 192 24l72 -12l96 24l12 -12h12l36 12l12 -12v-36q0 -85 -156 -108q-120 -57 -120 -84 l-84 12l-24 -48l12 -48q-18 0 -36 -48q-66 -20 -96 -60l24 -36v-12l-36 -36h-24q-72 42 -72 108zM220 1220q0 -48 48 -48v-12l36 12q0 72 -72 72v-24h-12zM448 1316l12 -36q62 0 72 36q-30 0 -36 48q-48 -12 -48 -48zM496 584l48 -48l24 24q0 53 -72 72v-48zM592 44v36 l48 60l-12 12v12l36 36h24l12 -12q240 0 384 312l108 48l24 -36l-12 -96v-24h12l-12 -84v-204q-57 -84 -120 -84v12l-36 -12l-288 12l-96 -12l-24 24l-36 -12zM712 980q0 -20 72 -48l36 60v12l-60 24q-48 -18 -48 -36v-12zM820 1112l108 -36l36 12q-12 84 -36 84 q-108 -18 -108 -60zM952 1328q12 -48 72 -48h12l24 24v12l-24 48h-36zM988 1052l24 -24h12q0 32 36 72h-24q-48 -18 -48 -36v-12z" />
<glyph unicode="{" />
<glyph unicode="|" />
<glyph unicode="}" />
<glyph unicode="~" />
<glyph unicode="&#xa1;" />
<glyph unicode="&#xa2;" />
<glyph unicode="&#xa3;" />
<glyph unicode="&#xa4;" />
<glyph unicode="&#xa5;" />
<glyph unicode="&#xa6;" />
<glyph unicode="&#xa7;" />
<glyph unicode="&#xa8;" />
<glyph unicode="&#xa9;" />
<glyph unicode="&#xaa;" />
<glyph unicode="&#xab;" />
<glyph unicode="&#xac;" />
<glyph unicode="&#xad;" horiz-adv-x="620" d="M40 700q29 147 84 216l168 -60v12l24 24h36v-12l-12 -12v-12q48 0 48 -36h48l12 48h-60l24 24h60l60 -12l36 36l12 -12v-12q-36 0 -72 -180h-24v-12l12 -36h-36v24l-12 -12l-12 12h-24v-12l12 -12v-12l-108 -12l-48 24l-12 -12h-12l-48 12l-120 -12zM256 808l12 -12h24 v12l-24 24l-12 -12v-12zM424 724l36 -12v12l-12 36h24v24h-12l-36 -36v-24z" />
<glyph unicode="&#xae;" />
<glyph unicode="&#xaf;" />
<glyph unicode="&#xb0;" />
<glyph unicode="&#xb1;" />
<glyph unicode="&#xb2;" />
<glyph unicode="&#xb3;" />
<glyph unicode="&#xb4;" />
<glyph unicode="&#xb5;" />
<glyph unicode="&#xb6;" />
<glyph unicode="&#xb7;" />
<glyph unicode="&#xb8;" />
<glyph unicode="&#xb9;" />
<glyph unicode="&#xba;" />
<glyph unicode="&#xbb;" />
<glyph unicode="&#xbc;" />
<glyph unicode="&#xbd;" />
<glyph unicode="&#xbe;" />
<glyph unicode="&#xbf;" />
<glyph unicode="&#xc0;" />
<glyph unicode="&#xc1;" />
<glyph unicode="&#xc2;" />
<glyph unicode="&#xc3;" />
<glyph unicode="&#xc4;" />
<glyph unicode="&#xc5;" />
<glyph unicode="&#xc6;" />
<glyph unicode="&#xc7;" />
<glyph unicode="&#xc8;" />
<glyph unicode="&#xc9;" />
<glyph unicode="&#xca;" />
<glyph unicode="&#xcb;" />
<glyph unicode="&#xcc;" />
<glyph unicode="&#xcd;" />
<glyph unicode="&#xce;" />
<glyph unicode="&#xcf;" />
<glyph unicode="&#xd0;" />
<glyph unicode="&#xd1;" />
<glyph unicode="&#xd2;" />
<glyph unicode="&#xd3;" />
<glyph unicode="&#xd4;" />
<glyph unicode="&#xd5;" />
<glyph unicode="&#xd6;" />
<glyph unicode="&#xd7;" />
<glyph unicode="&#xd8;" />
<glyph unicode="&#xd9;" />
<glyph unicode="&#xda;" />
<glyph unicode="&#xdb;" />
<glyph unicode="&#xdc;" />
<glyph unicode="&#xdd;" />
<glyph unicode="&#xde;" />
<glyph unicode="&#xdf;" />
<glyph unicode="&#xe0;" />
<glyph unicode="&#xe1;" />
<glyph unicode="&#xe2;" />
<glyph unicode="&#xe3;" />
<glyph unicode="&#xe4;" />
<glyph unicode="&#xe5;" />
<glyph unicode="&#xe6;" />
<glyph unicode="&#xe7;" />
<glyph unicode="&#xe8;" />
<glyph unicode="&#xe9;" />
<glyph unicode="&#xea;" />
<glyph unicode="&#xeb;" />
<glyph unicode="&#xec;" />
<glyph unicode="&#xed;" />
<glyph unicode="&#xee;" />
<glyph unicode="&#xef;" />
<glyph unicode="&#xf0;" />
<glyph unicode="&#xf1;" />
<glyph unicode="&#xf2;" />
<glyph unicode="&#xf3;" />
<glyph unicode="&#xf4;" />
<glyph unicode="&#xf5;" />
<glyph unicode="&#xf6;" />
<glyph unicode="&#xf7;" />
<glyph unicode="&#xf8;" />
<glyph unicode="&#xf9;" />
<glyph unicode="&#xfa;" />
<glyph unicode="&#xfb;" />
<glyph unicode="&#xfc;" />
<glyph unicode="&#xfd;" />
<glyph unicode="&#xfe;" />
<glyph unicode="&#xff;" />
<glyph unicode="&#x152;" />
<glyph unicode="&#x153;" />
<glyph unicode="&#x178;" />
<glyph unicode="&#x2c6;" />
<glyph unicode="&#x2dc;" />
<glyph unicode="&#x2000;" horiz-adv-x="735" />
<glyph unicode="&#x2001;" horiz-adv-x="1471" />
<glyph unicode="&#x2002;" horiz-adv-x="735" />
<glyph unicode="&#x2003;" horiz-adv-x="1471" />
<glyph unicode="&#x2004;" horiz-adv-x="490" />
<glyph unicode="&#x2005;" horiz-adv-x="367" />
<glyph unicode="&#x2006;" horiz-adv-x="245" />
<glyph unicode="&#x2007;" horiz-adv-x="245" />
<glyph unicode="&#x2008;" horiz-adv-x="183" />
<glyph unicode="&#x2009;" horiz-adv-x="294" />
<glyph unicode="&#x200a;" horiz-adv-x="81" />
<glyph unicode="&#x2010;" horiz-adv-x="620" d="M40 700q29 147 84 216l168 -60v12l24 24h36v-12l-12 -12v-12q48 0 48 -36h48l12 48h-60l24 24h60l60 -12l36 36l12 -12v-12q-36 0 -72 -180h-24v-12l12 -36h-36v24l-12 -12l-12 12h-24v-12l12 -12v-12l-108 -12l-48 24l-12 -12h-12l-48 12l-120 -12zM256 808l12 -12h24 v12l-24 24l-12 -12v-12zM424 724l36 -12v12l-12 36h24v24h-12l-36 -36v-24z" />
<glyph unicode="&#x2011;" horiz-adv-x="620" d="M40 700q29 147 84 216l168 -60v12l24 24h36v-12l-12 -12v-12q48 0 48 -36h48l12 48h-60l24 24h60l60 -12l36 36l12 -12v-12q-36 0 -72 -180h-24v-12l12 -36h-36v24l-12 -12l-12 12h-24v-12l12 -12v-12l-108 -12l-48 24l-12 -12h-12l-48 12l-120 -12zM256 808l12 -12h24 v12l-24 24l-12 -12v-12zM424 724l36 -12v12l-12 36h24v24h-12l-36 -36v-24z" />
<glyph unicode="&#x2012;" horiz-adv-x="620" d="M40 700q29 147 84 216l168 -60v12l24 24h36v-12l-12 -12v-12q48 0 48 -36h48l12 48h-60l24 24h60l60 -12l36 36l12 -12v-12q-36 0 -72 -180h-24v-12l12 -36h-36v24l-12 -12l-12 12h-24v-12l12 -12v-12l-108 -12l-48 24l-12 -12h-12l-48 12l-120 -12zM256 808l12 -12h24 v12l-24 24l-12 -12v-12zM424 724l36 -12v12l-12 36h24v24h-12l-36 -36v-24z" />
<glyph unicode="&#x2013;" />
<glyph unicode="&#x2014;" />
<glyph unicode="&#x2018;" />
<glyph unicode="&#x2019;" />
<glyph unicode="&#x201a;" />
<glyph unicode="&#x201c;" />
<glyph unicode="&#x201d;" />
<glyph unicode="&#x201e;" />
<glyph unicode="&#x2022;" />
<glyph unicode="&#x2026;" />
<glyph unicode="&#x202f;" horiz-adv-x="294" />
<glyph unicode="&#x2039;" />
<glyph unicode="&#x203a;" />
<glyph unicode="&#x205f;" horiz-adv-x="367" />
<glyph unicode="&#x20ac;" />
<glyph unicode="&#x2122;" />
<glyph unicode="&#x25fc;" horiz-adv-x="1415" d="M0 0v1415h1415v-1415h-1415z" />
</font>
</defs>
</svg>
